Присоединяйтесь к нам в Telegram!, здесь всегда актуальный адрес сайта, оперативная поддержка и многое другое!!

>

5.9

iTunes

7.4

iTunes

9.4

1 сезон

1

7.4

2 сезон

7.2

iTunes

7.3

1 сезон

13

6.1

iTunes

8.3

GOG

30

ULTIMATE

pack

9.9

Лицензия

ВАЖНО

ИГРА 18+

pack

7.3

RePack

MK11

7.7

RePack

jed

7.8

RePack

fifa19

8.5

RePack

RDR2

RePack

NEED FOR SPEED™ PAYBACK

5 сезон

9 сезон

Бесстыжие 9 сезон

Все сериалы

все сериалы на PB.wtf

RePack

FAR CRY 5

Anonymous, добрый вечер, мы катастрофически не успеваем собрать деньги на оплату серверов, помогите нам пожалуйста 5,10,15р., для нас важна любая помощь . В качестве благодарности мы отключим Вам всю рекламу на сайте (укажите свой ник в строку Ваше имя)!

×
  
Magnet ссылка

На месте принцессы 3: Роман со звездой / The Princess Switch 3: Romancing the Star (Майк Рол) [2021, Комедия, Драма, Семейный, WEB-DLRip-AVC] DUB [Пифагор] от ExKinoRay pb.wtf

На месте принцессы 3: Роман со звездой через торрент pb.wtf

Раздают: 4 [ 0 KB/s ]
Размер: 1.95 GB | Добавлен: 12 д. назад | Торрент скачан:14 раз
Смотреть онлайн На месте принцессы 3: Роман со звездой | Скачать    Ребята, помогите собрать деньги на оплату серверов!!!

18-11-2021 16:56 На месте принцессы 3: Роман со звездой Скачать торрент  


На месте принцессы 3: Роман со звездой / The Princess Switch 3: Romancing the Star
Информация о фильме:
Название: На месте принцессы 3: Роман со звездой
Оригинальное название: The Princess Switch 3: Romancing the Star
Год выхода: 2021
Жанр: Комедия, Драма, Семейный
Режиссер: Майк Рол

В ролях: Ванесса Энн Хадженс, Ник Сагар, Реми Хай, Аманда Донохью, Уилл Кемп, Сэм Палладио, Сюанн Браун, Флоренс Холл, Тео Девани, Чиди Аджуфо, Марк Флайшманн, Миа Ллойд, Феми Элуфоводжо, Джо Галина, Робин Соанс

Описание: После кражи бесценного рождественского артефакта похожие друг на друга принцессы Маргарет и Стейси обращаются за помощью к дерзкому двойнику Фионе и ее бывшему.



Страна: США
Продолжительность: 01:46:10
Перевод: Дублированный - Пифагор по заказу Netflix



Информация о файле:
Кодек: AVC
Формат: MKV
Качество: WEB-DLRip-AVC
Видео: MPEG-4 AVC, 1024x512, 23.976 fps, 1750 kb/s
Аудио RU: AC3, 6 ch, 48 kHz, 448 kbps
Аудио EN: AC3, 6 ch, 48 kHz, 448 kbps
Субтитры: Русские, английские, украинские

x264 info: frame I:1961 Avg QP:12.84 size: 79379
x264 info: frame P:31287 Avg QP:16.70 size: 20394
x264 info: frame B:119633 Avg QP:18.68 size: 4928
x264 info: consecutive B-frames: 2.9% 2.9% 6.5% 10.5% 15.5% 42.9% 9.8% 2.4% 2.1% 1.7% 2.7%
General
Unique ID : 201473145319639565325667496743533383726 (0x979250FCB6949DCA7785104A7F1D902E)
Complete name : D:uTorrentРипы wolf1245The Princess Switch 3. Romancing the Star.2021.DUB.PIFAGOR.WEB-DLRip-AVC.[wolf1245.ExKinoRay].mkv
Format : Matroska
Format version : Version 4
File size : 1.95 GiB
Duration : 1 h 46 min
Overall bit rate : 2 636 kb/s
Movie name : The Princess Switch 3. Romancing the Star.2021.DUB.PIFAGOR.WEB-DLRip-AVC.[wolf1245.ExKinoRay]
Encoded date : UTC 2021-11-18 16:36:16
Writing application : mkvmerge v63.0.0 ('Everything') 64-bit
Writing library : libebml v1.4.2 + libmatroska v1.6.4
Video
ID : 1
Format : AVC
Format/Info : Advanced Video Codec
Format profile : High@L4.1
Format settings : CABAC / 12 Ref Frames
Format settings, CABAC : Yes
Format settings, Reference frames : 12 frames
Codec ID : V_MPEG4/ISO/AVC
Duration : 1 h 46 min
Bit rate : 1 750 kb/s
Width : 1 024 pixels
Height : 512 pixels
Display aspect ratio : 2.000
Frame rate mode : Constant
Frame rate : 24.000 FPS
Color space : YUV
Chroma subsampling : 4:2:0
Bit depth : 8 bits
Scan type : Progressive
Bits/(Pixel*Frame) : 0.139
Stream size : 1.29 GiB (66%)
Title : =[wolf1245.ExKinoRay]=-
Writing library : x264 core 161 r3020 d198931
Encoding settings : cabac=1 / ref=12 / deblock=1:-2:-2 / analyse=0x3:0x133 / me=umh / subme=10 / psy=1 / psy_rd=1.05:0.10 / mixed_ref=1 / me_range=32 / chroma_me=1 / trellis=2 / 8x8dct=1 / cqm=0 / deadzone=21,11 / fast_pskip=1 / chroma_qp_offset=-3 / threads=10 / lookahead_threads=2 / sliced_threads=0 / nr=0 / decimate=0 / interlaced=0 / bluray_compat=0 / constrained_intra=0 / bframes=10 / b_pyramid=2 / b_adapt=2 / b_bias=0 / direct=3 / weightb=1 / open_gop=0 / weightp=2 / keyint=240 / keyint_min=24 / scenecut=40 / intra_refresh=0 / rc_lookahead=60 / rc=2pass / mbtree=0 / bitrate=1750 / ratetol=1.0 / qcomp=0.60 / qpmin=0 / qpmax=69 / qpstep=4 / cplxblur=20.0 / qblur=0.5 / vbv_maxrate=50000 / vbv_bufsize=62500 / nal_hrd=none / filler=0 / ip_ratio=1.40 / pb_ratio=1.30 / aq=3:0.80
Language : English
Default : Yes
Forced : No
Audio #1
ID : 2
Format : AC-3
Format/Info : Audio Coding 3
Commercial name : Dolby Digital
Codec ID : A_AC3
Duration : 1 h 46 min
Bit rate mode : Constant
Bit rate : 448 kb/s
Channel(s) : 6 channels
Channel layout : L R C LFE Ls Rs
Sampling rate : 48.0 kHz
Frame rate : 31.250 FPS (1536 SPF)
Compression mode : Lossy
Stream size : 340 MiB (17%)
Title : [DUB] Пифагор
Language : Russian
Service kind : Complete Main
Default : Yes
Forced : No
Audio #2
ID : 3
Format : AC-3
Format/Info : Audio Coding 3
Commercial name : Dolby Digital
Codec ID : A_AC3
Duration : 1 h 46 min
Bit rate mode : Constant
Bit rate : 448 kb/s
Channel(s) : 6 channels
Channel layout : L R C LFE Ls Rs
Sampling rate : 48.0 kHz
Frame rate : 31.250 FPS (1536 SPF)
Compression mode : Lossy
Stream size : 340 MiB (17%)
Title : Original
Language : English
Service kind : Complete Main
Default : Yes
Forced : No
Text #1
ID : 4
Format : UTF-8
Codec ID : S_TEXT/UTF8
Codec ID/Info : UTF-8 Plain Text
Duration : 1 h 44 min
Bit rate : 89 b/s
Count of elements : 1295
Stream size : 68.1 KiB (0%)
Title : Russian
Language : Russian
Default : No
Forced : No
Text #2
ID : 5
Format : UTF-8
Codec ID : S_TEXT/UTF8
Codec ID/Info : UTF-8 Plain Text
Duration : 1 h 44 min
Bit rate : 77 b/s
Count of elements : 1838
Stream size : 59.0 KiB (0%)
Title : English (SDH)
Language : English
Default : No
Forced : No
Text #3
ID : 6
Format : UTF-8
Codec ID : S_TEXT/UTF8
Codec ID/Info : UTF-8 Plain Text
Duration : 1 h 44 min
Bit rate : 85 b/s
Count of elements : 1273
Stream size : 65.2 KiB (0%)
Title : Ukrainan
Language : Ukrainian
Default : No
Forced : No
Релиз от:
Автор релиза:
pb.wtf



Скачать На месте принцессы 3: Роман со звездой через торрент https://i116.fastpic.org/big/2021/1118/15/f39b2b9d50e5f27f6202ee9e585a2215.jpg Скачать, смотреть онлайн На месте принцессы 3: Роман со звездой бесплантно в хорошем качестве Описание: После кражи бесценного рождественского артефакта похожие друг на друга принцессы Маргарет и Стейси обращаются за помощью к ... 10 10 1
Торрент: Зарегистрирован [2021-11-18 16:56] · скачан: 14 раз
Статус: √ проверено
Размер: 1.95 GB
Как cкачать? Как скачать На месте принцессы 3: Роман со звездой через торрент | UTorrent

28-11-2019 20:33  

Отключить всю рекламу на сайте

    Дорогой пользователь! Огромная просьба, поблагодарите релизера, оцените раздачу и оставьте свои комментарий, если Вы скачали На месте принцессы 3: Роман со звездой через торрент бесплатно!
    Комментировать посты могут только пользователи прошедшие не сложную регистрацию
    Показать сообщения:    

    На месте принцессы 3: Роман со звездой через торрент
    Скачать бесплатно На месте принцессы 3: Роман со звездой
    На месте принцессы 3: Роман со звездой скачать торрент
    На месте принцессы 3: Роман со звездой смотреть онлайн
    Cкачать фильм На месте принцессы 3: Роман со звездой бесплатно
    На месте принцессы 3: Роман со звездой скачать торрент в хорошем качестве
    На месте принцессы 3: Роман со звездой смотреть онлайн бесплатно в хорошем качестве


    Вы не можете начинать темы
    Вы не можете отвечать на сообщения
    Вы не можете редактировать свои сообщения
    Вы не можете удалять свои сообщения
    Вы не можете голосовать в опросах
    Вы не можете прикреплять файлы к сообщениям
    Вы можете скачивать файлы