Присоединяйтесь к нам в Telegram!, здесь всегда актуальный адрес сайта, оперативная поддержка и многое другое!!

>

5.9

iTunes

7.4

iTunes

9.4

1 сезон

1

7.4

2 сезон

7.2

iTunes

7.3

1 сезон

13

6.1

iTunes

8.3

GOG

30

ULTIMATE

pack

9.9

Лицензия

ВАЖНО

ИГРА 18+

pack

7.3

RePack

MK11

7.7

RePack

jed

7.8

RePack

fifa19

8.5

RePack

RDR2

RePack

NEED FOR SPEED™ PAYBACK

5 сезон

9 сезон

Бесстыжие 9 сезон

Все сериалы

все сериалы на PB.wtf

RePack

FAR CRY 5

Anonymous, доброе утро, мы катастрофически не успеваем собрать деньги на оплату серверов, помогите нам пожалуйста 5,10,15р., для нас важна любая помощь . В качестве благодарности мы отключим Вам всю рекламу на сайте (укажите свой ник в строку Ваше имя)!

×
  
Magnet ссылка

Последнее письмо от твоего любимого / The Last Letter from Your Lover (Августин Фриззелл) [2021, Драма, мелодрама, HDRip-AVC] MVO [Jaskier] от ExKinoRay pb.wtf

Последнее письмо от твоего любимого через торрент pb.wtf

Раздают: 1 [ 0 KB/s ]
Размер: 2.06 GB | Добавлен: 12 д. назад | Торрент скачан:25 раз
Смотреть онлайн Последнее письмо от твоего любимого | Скачать    Ребята, помогите собрать деньги на оплату серверов!!!

19-11-2021 13:10 Последнее письмо от твоего любимого Скачать торрент  


Последнее письмо от твоего любимого / The Last Letter from Your Lover
Информация о фильме:
Название: Последнее письмо от твоего любимого
Оригинальное название: The Last Letter from Your Lover
Год выхода: 2021
Жанр: Драма, мелодрама
Режиссер: Августин Фриззелл

В ролях: Шейлин Вудли, Фелисити Джонс, Каллум Тёрнер, Джо Элвин, Бен Кросс, Дайана Кент, Ншути Гатва, Кристиан Брассингтон, Ли Найт (II), Набхаан Ризван, Алфредо Таварес, Энн Огбомо, Эмма Эпплтон, Вильгельм Бломгрен, Луис Джеймс, Мэтт Мелла

Описание: Англия 1960-го года. Дженнифер Стерлинг приходит в себя на больничной койке после жуткой автомобильной катастрофы. Она не может вспомнить ни обстоятельств аварии, ни своего богатого мужа, ни даже то, как ее зовут. Окружающий мир был чужим для нее до тех пор, пока она не наткнулась на письма, адресованные ей и подписанные просто буквой "Б". Их автор признавался Дженнифер в любви и умолял ее уйти от мужа. Уже в XXI веке Элли, молодой репортер, находит одно из писем в архиве своей газеты…



Страна: Великобритания, Франция
Студия: StudioCanal, Blueprint Pictures, Canal+ [fr], Cine+, The Film Farm
Продолжительность: 01:49:17
Перевод: Профессиональный (многоголосый, закадровый) - Jaskier



Информация о файле:
Кодек: AVC
Формат: MKV
Качество: HDRip-AVC
Видео: MPEG-4 AVC, 1024x428, 23.976 fps, 1850 kb/s
Аудио RU: AC3, 6 ch, 48 kHz, 384 kbps
Аудио EN: AC3, 6 ch, 48 kHz, 448 kbps
Субтитры: Русские (форсированные, полные), английские (Forced, SDH)

x264 info: frame I:1243 Avg QP:13.25 size: 65580
x264 info: frame P:32653 Avg QP:16.54 size: 20143
x264 info: frame B:123474 Avg QP:18.11 size: 6279
x264 info: consecutive B-frames: 2.2% 3.6% 6.5% 9.7% 11.5% 54.1% 7.3% 1.7% 2.0% 0.4% 1.0%
General
Unique ID : 266348041191009158025744954656615781904 (0xC860C44E0B66008D8ABBB882F1DF5610)
Complete name : D:uTorrentРипы wolf1245The Last Letter from Your Lover.2021.MVO.Jaskier.HDRip-AVC.[wolf1245.ExKinoRay].mkv
Format : Matroska
Format version : Version 4
File size : 2.06 GiB
Duration : 1 h 49 min
Overall bit rate : 2 696 kb/s
Movie name : The Last Letter from Your Lover.2021.MVO.Jaskier.HDRip-AVC.[wolf1245.ExKinoRay]
Encoded date : UTC 2021-11-19 12:53:39
Writing application : mkvmerge v63.0.0 ('Everything') 64-bit
Writing library : libebml v1.4.2 + libmatroska v1.6.4
Video
ID : 1
Format : AVC
Format/Info : Advanced Video Codec
Format profile : High@L4.1
Format settings : CABAC / 12 Ref Frames
Format settings, CABAC : Yes
Format settings, Reference frames : 12 frames
Codec ID : V_MPEG4/ISO/AVC
Duration : 1 h 49 min
Bit rate : 1 850 kb/s
Width : 1 024 pixels
Height : 428 pixels
Display aspect ratio : 2.40:1
Frame rate mode : Constant
Frame rate : 24.000 FPS
Color space : YUV
Chroma subsampling : 4:2:0
Bit depth : 8 bits
Scan type : Progressive
Bits/(Pixel*Frame) : 0.176
Stream size : 1.41 GiB (69%)
Title : -=[wolf1245.ExKinoRay]=-
Writing library : x264 core 161 r3020 d198931
Encoding settings : cabac=1 / ref=12 / deblock=1:-3:-3 / analyse=0x3:0x133 / me=umh / subme=11 / psy=1 / psy_rd=1.02:0.05 / mixed_ref=1 / me_range=48 / chroma_me=1 / trellis=2 / 8x8dct=1 / cqm=0 / deadzone=21,11 / fast_pskip=1 / chroma_qp_offset=-3 / threads=10 / lookahead_threads=2 / sliced_threads=0 / nr=0 / decimate=0 / interlaced=0 / bluray_compat=0 / constrained_intra=0 / bframes=10 / b_pyramid=2 / b_adapt=2 / b_bias=0 / direct=3 / weightb=1 / open_gop=0 / weightp=2 / keyint=240 / keyint_min=24 / scenecut=40 / intra_refresh=0 / rc_lookahead=60 / rc=2pass / mbtree=0 / bitrate=1850 / ratetol=1.0 / qcomp=0.60 / qpmin=0 / qpmax=69 / qpstep=4 / cplxblur=20.0 / qblur=0.5 / vbv_maxrate=50000 / vbv_bufsize=62500 / nal_hrd=none / filler=0 / ip_ratio=1.40 / pb_ratio=1.30 / aq=3:0.80
Language : English
Default : Yes
Forced : No
Color range : Limited
Matrix coefficients : BT.709
Audio #1
ID : 2
Format : AC-3
Format/Info : Audio Coding 3
Commercial name : Dolby Digital
Codec ID : A_AC3
Duration : 1 h 49 min
Bit rate mode : Constant
Bit rate : 384 kb/s
Channel(s) : 6 channels
Channel layout : L R C LFE Ls Rs
Sampling rate : 48.0 kHz
Frame rate : 31.250 FPS (1536 SPF)
Compression mode : Lossy
Stream size : 300 MiB (14%)
Title : MVO | Jaskier
Language : Russian
Service kind : Complete Main
Default : Yes
Forced : No
Audio #2
ID : 3
Format : AC-3
Format/Info : Audio Coding 3
Commercial name : Dolby Digital
Codec ID : A_AC3
Duration : 1 h 49 min
Bit rate mode : Constant
Bit rate : 448 kb/s
Channel(s) : 6 channels
Channel layout : L R C LFE Ls Rs
Sampling rate : 48.0 kHz
Frame rate : 31.250 FPS (1536 SPF)
Compression mode : Lossy
Stream size : 350 MiB (17%)
Title : Original
Language : English
Service kind : Complete Main
Default : Yes
Forced : No
Text #1
ID : 4
Format : UTF-8
Codec ID : S_TEXT/UTF8
Codec ID/Info : UTF-8 Plain Text
Duration : 1 h 20 min
Bit rate : 2 b/s
Count of elements : 40
Stream size : 1.52 KiB (0%)
Title : Forced
Language : Russian
Default : Yes
Forced : No
Text #2
ID : 5
Format : UTF-8
Codec ID : S_TEXT/UTF8
Codec ID/Info : UTF-8 Plain Text
Duration : 1 h 48 min
Bit rate : 67 b/s
Count of elements : 1081
Stream size : 54.0 KiB (0%)
Title : Russian
Language : Russian
Default : No
Forced : No
Text #3
ID : 6
Format : UTF-8
Codec ID : S_TEXT/UTF8
Codec ID/Info : UTF-8 Plain Text
Duration : 7 s 333 ms
Bit rate : 128 b/s
Count of elements : 3
Stream size : 118 Bytes (0%)
Title : English (Forced)
Language : English
Default : No
Forced : No
Text #4
ID : 7
Format : UTF-8
Codec ID : S_TEXT/UTF8
Codec ID/Info : UTF-8 Plain Text
Duration : 1 h 47 min
Bit rate : 63 b/s
Count of elements : 1438
Stream size : 50.4 KiB (0%)
Title : SDH
Language : English
Default : No
Forced : No
Text #5
ID : 8
Format : PGS
Muxing mode : zlib
Codec ID : S_HDMV/PGS
Codec ID/Info : Picture based subtitle format used on BDs/HD-DVDs
Duration : 7 s 333 ms
Bit rate : 78.4 kb/s
Count of elements : 6
Stream size : 70.1 KiB (0%)
Title : Forced
Language : English
Default : No
Forced : No
Text #6
ID : 9
Format : PGS
Muxing mode : zlib
Codec ID : S_HDMV/PGS
Codec ID/Info : Picture based subtitle format used on BDs/HD-DVDs
Duration : 1 h 45 min
Bit rate : 38.2 kb/s
Count of elements : 3094
Stream size : 28.8 MiB (1%)
Title : SDH
Language : English
Default : No
Forced : No
Menu
00:00:00.000 : :Chapter 01
00:05:04.208 : :Chapter 02
00:13:11.667 : :Chapter 03
00:24:25.083 : :Chapter 04
00:34:53.917 : :Chapter 05
00:42:37.792 : :Chapter 06
00:53:37.958 : :Chapter 07
01:02:52.833 : :Chapter 08
01:12:25.292 : :Chapter 09
01:24:19.458 : :Chapter 10
01:33:45.083 : :Chapter 11
01:40:46.375 : :Chapter 12
Релиз от:
Автор релиза:
pb.wtf



Скачать Последнее письмо от твоего любимого через торрент https://i116.fastpic.org/big/2021/1119/77/be583e942c7cbb63b54ad21d8c73d677.jpg Скачать, смотреть онлайн Последнее письмо от твоего любимого бесплантно в хорошем качестве Описание: Англия 1960-го года. Дженнифер Стерлинг приходит в себя на больничной койке после жуткой автомобильной катастрофы. Она не может ... 10 10 2
Торрент: Зарегистрирован [2021-11-19 13:10] · скачан: 25 раз
Статус: √ проверено
Размер: 2.06 GB
Как cкачать? Как скачать Последнее письмо от твоего любимого через торрент | UTorrent

28-11-2019 20:33  

Отключить всю рекламу на сайте

    Дорогой пользователь! Огромная просьба, поблагодарите релизера, оцените раздачу и оставьте свои комментарий, если Вы скачали Последнее письмо от твоего любимого через торрент бесплатно!
    Комментировать посты могут только пользователи прошедшие не сложную регистрацию
    Показать сообщения:    

    Последнее письмо от твоего любимого через торрент
    Скачать бесплатно Последнее письмо от твоего любимого
    Последнее письмо от твоего любимого скачать торрент
    Последнее письмо от твоего любимого смотреть онлайн
    Cкачать фильм Последнее письмо от твоего любимого бесплатно
    Последнее письмо от твоего любимого скачать торрент в хорошем качестве
    Последнее письмо от твоего любимого смотреть онлайн бесплатно в хорошем качестве


    Вы не можете начинать темы
    Вы не можете отвечать на сообщения
    Вы не можете редактировать свои сообщения
    Вы не можете удалять свои сообщения
    Вы не можете голосовать в опросах
    Вы не можете прикреплять файлы к сообщениям
    Вы можете скачивать файлы