Аватар: Путь воды

Дубляж

смотреть онлайн / скачать торрент Барби / Barbie

Дубляж

смотреть онлайн / скачать торрент Кентавр

Лицензия

Активация Cyberpunk 2077+Phantom Liberty

Premium

Активация Lies of P

Deluxe

Активация Resident evil 4 remake+DLC Separate Ways

Игра+DLC

смотреть онлайн / скачать торрент Два, три, демон, приди!

MVO

смотреть онлайн / скачать торрент Форсаж 10

Лицензия

смотреть онлайн / скачать торрент Ведьмак / The Witcher / Сезон: 3

3 сезон

смотреть онлайн / скачать торрент Стражи Галактики. Часть 3

Дубляж

Рекомендуем

Рекомендуем

ВАЖНО

ВАЖНО

30

Лицензия

Ratchet & Clank™ Rift Apart

Лицензия

jed

RePack

Forspoken

RePack

RDR2

RePack

NEED FOR SPEED™ PAYBACK

RePack

смотреть онлайн / скачать торрент Захваченный

Невафильм

смотреть онлайн / скачать торрент Острые козырьки 6 сезон

6 сезон

FAR CRY 6

RePack

смотреть онлайн / скачать торрент Доктор Стрэндж

Лицензия

смотреть онлайн / скачать торрент Добыча

MVO

смотреть онлайн / скачать торрент Киллер

1 сезон

смотреть онлайн / скачать торрент Мэверик

Лицензия

  

Тик-так... БУМ! / Tick, Tick... Boom! (Лин-Мануэль Миранда) [2021, Драма, биография, мюзикл, WEB-DL 1080p] Дубляж [Пифагор / Netflix]

Тик-так... БУМ! через торрент pb.wtf

Размер: 7.82 GB | Добавлен: 1 год 10 мес. назад | Торрент скачан:345 раз
STARFIELD активация

2021-11-19 16:06 Тик-так... БУМ! Скачать торрент  

Тик-так... БУМ!
Tick, Tick... Boom!

Год выпуска: 2021
Страна: США
Студия: 5000 Broadway Productions, Imagine Entertainment
Жанр: Драма, биография, мюзикл
Продолжительность: 02:01:36
Перевод: Дублированный | Пифагор по заказу Netflix
Субтитры: Русские (Forced, full), украинские (Full), английские

Режиссер: Лин-Мануэль Миранда

рейтинг кинопоиск рейтинг imdb

В ролях: Эндрю Гарфилд, Ванесса Энн Хадженс, Брэдли Уитфорд, Александра Шипп, Джудит Лайт, Робин де Хесус, Джошуа Генри, Джоэнна Адлер, Бет Мэлоун, Ной Роббинс

Описание: 1990 год. Молодой композитор Джон работает официантом в нью-йоркской забегаловке. Параллельно он пишет мюзикл «Супербия», который, как он рассчитывает, в будущем станет новым хитом Бродвея и позволит ему вырваться из нищеты. В жизни Джона всё непросто. Его девушка Сюзан устала ждать, пока бойфренд добьется успеха, а лучший друг оставил мечты и устроился на престижную работу в рекламном агентстве. Джону скоро исполнится 30 лет, и он начинает переживать, что впустую потратил все эти годы.

Качество: WEB-DL 1080p
Формат: MKV

Видео: MPEG-4 AVC, 1920x1080, 7160 Kbit/s, 24.000 fps
Аудио #01: 48 kHz, E-AC3, 5.1, 640 Kbps | Дублированный | Netflix | RUS |
Аудио #02: 48 kHz, AC3, 5.1, 640 Kbps | Дублированный | Netflix | RUS |
Аудио #03: 48 kHz, E-AC3+Atmos, 5.1, 768 Kbps | Оригинал | ENG |
скриншот  скриншот  скриншот  скриншот  скриншот  

General
Unique ID : 322629613523010838509643143657493572565 (0xF2B8340F990EAFBDF62171FDD0072BD5)
Complete name : E:VideoTick.Tick.BOOM!.2021.NF.WEB-DL.1080p.seleZen.mkv
Format : Matroska
Format version : Version 4
File size : 7.82 GiB
Duration : 2 h 1 min
Overall bit rate mode : Variable
Overall bit rate : 9 210 kb/s
Movie name : Tick Tick BOOM! 2021 from seleZen
Encoded date : UTC 2021-11-19 11:05:43
Writing application : mkvmerge v59.0.0 ('Shining Star') 64-bit
Writing library : libebml v1.4.2 + libmatroska v1.6.4

Video
ID : 1
Format : AVC
Format/Info : Advanced Video Codec
Format profile : High@L4
Format settings : CABAC / 4 Ref Frames
Format settings, CABAC : Yes
Format settings, Reference frames : 4 frames
Codec ID : V_MPEG4/ISO/AVC
Duration : 2 h 1 min
Bit rate mode : Variable
Bit rate : 7 160 kb/s
Maximum bit rate : 20.0 Mb/s
Width : 1 920 pixels
Height : 1 080 pixels
Display aspect ratio : 16:9
Frame rate mode : Constant
Frame rate : 24.000 FPS
Color space : YUV
Chroma subsampling : 4:2:0
Bit depth : 8 bits
Scan type : Progressive
Bits/(Pixel*Frame) : 0.144
Stream size : 6.08 GiB (78%)
Writing library : x264 core 148 r2727 7d026e8
Encoding settings : cabac=1 / ref=4 / deblock=1:0:0 / analyse=0x3:0x111 / me=umh / subme=10 / psy=1 / psy_rd=1.00:0.00 / mixed_ref=1 / me_range=120 / chroma_me=1 / trellis=2 / 8x8dct=1 / cqm=0 / deadzone=21,11 / fast_pskip=1 / chroma_qp_offset=-2 / threads=8 / lookahead_threads=2 / sliced_threads=0 / nr=0 / decimate=1 / interlaced=0 / bluray_compat=0 / stitchable=1 / constrained_intra=0 / bframes=16 / b_pyramid=2 / b_adapt=2 / b_bias=0 / direct=3 / weightb=1 / open_gop=0 / weightp=2 / keyint=240 / keyint_min=121 / scenecut=0 / intra_refresh=0 / rc_lookahead=240 / rc=crf / mbtree=1 / crf=16.0 / qcomp=0.50 / qpmin=6 / qpmax=51 / qpstep=4 / vbv_maxrate=20000 / vbv_bufsize=25000 / crf_max=0.0 / nal_hrd=vbr / filler=0 / ip_ratio=1.40 / aq=1:0.80
Language : English
Default : Yes
Forced : No

Audio #1
ID : 2
Format : E-AC-3
Format/Info : Enhanced AC-3
Commercial name : Dolby Digital Plus
Codec ID : A_EAC3
Duration : 2 h 1 min
Bit rate mode : Constant
Bit rate : 640 kb/s
Channel(s) : 6 channels
Channel layout : L R C LFE Ls Rs
Sampling rate : 48.0 kHz
Frame rate : 31.250 FPS (1536 SPF)
Compression mode : Lossy
Stream size : 557 MiB (7%)
Title : Дубляж [Netflix]
Language : Russian
Service kind : Complete Main
Default : Yes
Forced : Yes

Audio #2
ID : 3
Format : AC-3
Format/Info : Audio Coding 3
Commercial name : Dolby Digital
Codec ID : A_AC3
Duration : 2 h 1 min
Bit rate mode : Constant
Bit rate : 640 kb/s
Channel(s) : 6 channels
Channel layout : L R C LFE Ls Rs
Sampling rate : 48.0 kHz
Frame rate : 31.250 FPS (1536 SPF)
Compression mode : Lossy
Stream size : 557 MiB (7%)
Title : Дубляж [Netflix]
Language : Russian
Service kind : Complete Main
Default : No
Forced : No

Audio #3
ID : 4
Format : E-AC-3 JOC
Format/Info : Enhanced AC-3 with Joint Object Coding
Commercial name : Dolby Digital Plus with Dolby Atmos
Codec ID : A_EAC3
Duration : 2 h 1 min
Bit rate mode : Constant
Bit rate : 768 kb/s
Channel(s) : 6 channels
Channel layout : L R C LFE Ls Rs
Sampling rate : 48.0 kHz
Frame rate : 31.250 FPS (1536 SPF)
Compression mode : Lossy
Stream size : 668 MiB (8%)
Title : Original
Language : English
Service kind : Complete Main
Default : No
Forced : No
Complexity index : 16
Number of dynamic objects : 15
Bed channel count : 1 channel
Bed channel configuration : LFE

Text #1
ID : 5
Format : UTF-8
Codec ID : S_TEXT/UTF8
Codec ID/Info : UTF-8 Plain Text
Duration : 1 h 58 min
Bit rate : 34 b/s
Count of elements : 596
Stream size : 29.8 KiB (0%)
Title : Forced
Language : Russian
Default : Yes
Forced : Yes

Text #2
ID : 6
Format : UTF-8
Codec ID : S_TEXT/UTF8
Codec ID/Info : UTF-8 Plain Text
Duration : 1 h 58 min
Bit rate : 102 b/s
Count of elements : 1635
Stream size : 89.0 KiB (0%)
Title : Full
Language : Russian
Default : No
Forced : No

Text #3
ID : 7
Format : UTF-8
Codec ID : S_TEXT/UTF8
Codec ID/Info : UTF-8 Plain Text
Duration : 1 h 58 min
Bit rate : 96 b/s
Count of elements : 1591
Stream size : 84.1 KiB (0%)
Title : Full
Language : Ukrainian
Default : No
Forced : No

Text #4
ID : 8
Format : UTF-8
Codec ID : S_TEXT/UTF8
Codec ID/Info : UTF-8 Plain Text
Duration : 1 h 57 min
Bit rate : 82 b/s
Count of elements : 1948
Stream size : 70.6 KiB (0%)
Title : English [CC]
Language : English
Default : No
Forced : No



Что делать, если пишет видео недоступно?
Смотрeть онлайн фильм Тик-так... БУМ! в хорошем HD 1080 качестве



Описание: 1990 год. Молодой композитор Джон работает официантом в нью-йоркской забегаловке. Параллельно он пишет мюзикл «Супербия», ... https://c.radikal.ru/c14/2111/74/39b8672b3fa2.jpg https://c.radikal.ru/c14/2111/74/39b8672b3fa2.jpg 2021-11-19 16:06 Cмотреть онлайн Тик-так... БУМ! true ru Скачать Тик-так... БУМ! через торрент, смотреть онлайн Тик-так... БУМ! https://c.radikal.ru/c14/2111/74/39b8672b3fa2.jpg Скачать, смотреть онлайн Тик-так... БУМ! бесплатно в хорошем качестве Описание: 1990 год. Молодой композитор Джон работает официантом в нью-йоркской забегаловке. Параллельно он пишет мюзикл «Супербия», ... 9.8 10 8
Info! Золотая раздача, скачанное не засчитывается.
Торрент: Зарегистрирован [2021-11-19 16:06] · скачан: 345 раз
Статус: √ проверено
Размер: 7.82 GB
Как cкачать? Как скачать Тик-так... БУМ! через торрент | UTorrent | Поделиться в телеграм

% Раздел Тема Автор DL S | L
Фильмы 2021 [DVDrip, WEB-DLRip, HDrip] (DUB, MVO) [ 2.18 GB ] Тик-так... БУМ! / Tick, Tick... Boom! | Лицензия | DLRip Twi7ter Скачать
1 | 0
Фильмы 2021 [DVDrip, WEB-DLRip, HDrip] (DUB, MVO) [ 1.46 GB ] Тик-так... БУМ! / Tick, Tick... Boom! | Лицензия | DLRip Twi7ter Скачать
1 | 0
Фильмы 2021 [DVDrip, WEB-DLRip, HDrip] (DUB, MVO) [ 2.18 GB ] Тик-так... БУМ! / Tick, Tick... Boom! | Пифагор | DLRip bober100 Скачать
1 | 0
Фильмы 2021 [DVDrip, WEB-DLRip, HDrip] (DUB, MVO) [ 1.46 GB ] Тик-так... БУМ! / Tick, Tick... Boom! | Пифагор | DLRip bober100 Скачать
1 | 0



Последний раз редактировалось: bober100 (2021-11-20 03:56), всего редактировалось 1 раз

28-11-2019 20:33  


Отключить вcю реклaмy на сайте, в т.ч. и в плеере онлайн просмотра!

    Дорогой пользователь! Огромная просьба, поблагодарите релизера, оцените раздачу и оставьте свои комментарий, если Вы скачали Тик-так... БУМ! через торрент бесплатно!!
    Комментировать посты могут только пользователи прошедшие не сложную регистрацию
    Показать сообщения:    


    смотреть онлайн Тик-так... БУМ!
    Тик-так... БУМ! через торрент
    Скачать бесплатно Тик-так... БУМ!
    Тик-так... БУМ! скачать торрент
    Тик-так... БУМ! смотреть онлайн
    Cкачать фильм Тик-так... БУМ! бесплатно
    Тик-так... БУМ! скачать торрент в хорошем качестве
    Тик-так... БУМ! смотреть онлайн бесплатно в хорошем качестве
    Вы не можете начинать темы
    Вы не можете отвечать на сообщения
    Вы не можете редактировать свои сообщения
    Вы не можете удалять свои сообщения
    Вы не можете голосовать в опросах
    Вы не можете прикреплять файлы к сообщениям
    Вы можете скачивать файлы