Присоединяйтесь к нам в Telegram!, здесь всегда актуальный адрес сайта, оперативная поддержка и многое другое!!

>

5.9

iTunes

7.4

iTunes

9.4

1 сезон

1

7.4

2 сезон

7.2

iTunes

7.3

1 сезон

13

6.1

iTunes

8.3

GOG

30

ULTIMATE

pack

9.9

Лицензия

ВАЖНО

ИГРА 18+

pack

7.3

RePack

MK11

7.7

RePack

jed

7.8

RePack

fifa19

8.5

RePack

RDR2

RePack

NEED FOR SPEED™ PAYBACK

5 сезон

9 сезон

Бесстыжие 9 сезон

Все сериалы

все сериалы на PB.wtf

RePack

FAR CRY 5

Anonymous, доброй ночи, мы катастрофически не успеваем собрать деньги на оплату серверов, помогите нам пожалуйста 5,10,15р., для нас важна любая помощь . В качестве благодарности мы отключим Вам всю рекламу на сайте (укажите свой ник в строку Ваше имя)!

×
  
Magnet ссылка

Город собак / Dog Town (Джеймс Снайдер) [2019, мультфильм, семейный, WEB-DL 1080p] [Dub] (RWV) pb.wtf

Город собак через торрент pb.wtf

Раздают: 1 [ 0 KB/s ]
Размер: 2.85 GB | Добавлен: 11 д. назад | Торрент скачан:44 раза
Смотреть онлайн Город собак | Скачать    Ребята, помогите собрать деньги на оплату серверов!!!

20-11-2021 17:09 Город собак Скачать торрент  

Город собакDog Town

Год выпуска: 2019
Страна: США
Жанр: мультфильм, семейный
Продолжительность: 01:12:43
Перевод: Профессиональный (дублированный) RWV

Режиссёр: Джеймс Снайдер / James Snider

Роли озвучивали: Томас Фрили, Эли Джеймс, Мария Петрано, Джейкоб Уайтшед (Original / English)
Описание: Город собак - это уникальное место, где всё устроено как у людей, хотя живут там одни четвероногие. Но однажды в городке становится слишком шумно. Громкий лай мешает жить не только соседям из ближайших поселений, но и самим собакам, которым всё сложнее вести беседы и слышать друг друга. Местные власти выписывают из Франции учителя хороших манер. Сможет ли он усмирить шумных псов?

rating -СЭМПЛ-

Качество: WEB-DL 1080p
Формат: MKV
Видео: MPEG-4 AVC / NTSC 16:9 / 1920x1080 (1,78:1) / 5104 kbps / 24,000 fps / 0.103 bit/pixel / High@L4
Аудио 1: Russian | AAC-LC / 48 kHz / 2.0 Ch / 256 kbps / 24-bit | DUB | RWV
Аудио 2: English | AAC-LC / 48 kHz / 2.0 Ch / 256 kbps / 24-bit | Original
Субтитры: нет

Код:

Общее
Уникальный идентификатор                 : 151471706266473567535084206672424505398 (0x71F463B521C1E2DE0F08306AACF09036)
Полное имя                               : N:\IVI\Dog Town.2019.1080p.WEB-DL.H.264.2xAAC.2.0.mkv
Формат                                   : Matroska
Версия формата                           : Version 4
Размер файла                             : 2,85 Гбайт
Продолжительность                        : 1 ч. 12 м.
Общий поток                              : 5 619 Кбит/сек
Дата кодирования                         : UTC 2021-11-20 07:00:08
Программа кодирования                    : mkvmerge v63.0.0 ('Everything') 64-bit
Библиотека кодирования                   : libebml v1.4.2 + libmatroska v1.6.4

Видео
Идентификатор                            : 1
Формат                                   : AVC
Формат/Информация                        : Advanced Video Codec
Профиль формата                          : High@L4
Настройки формата                        : CABAC / 4 Ref Frames
Параметр CABAC формата                   : Да
Параметр RefFrames формата               : 4 кадра
Идентификатор кодека                     : V_MPEG4/ISO/AVC
Продолжительность                        : 1 ч. 12 м.
Битрейт                                  : 5 120 Кбит/сек
Ширина                                   : 1 920 пикселей
Высота                                   : 1 080 пикселей
Соотношение сторон                       : 16:9
Режим частоты кадров                     : Постоянный
Частота кадров                           : 24,000 кадра/сек
Цветовое пространство                    : YUV
Субдискретизация насыщенности            : 4:2:0
Битовая глубина                          : 8 бит
Тип развёртки                            : Прогрессивная
Бит/(Пиксели*Кадры)                      : 0.103
Размер потока                            : 2,59 Гбайт (91%)
Библиотека кодирования                   : x264 core 152 r2854 e9a5903
Настройки программы                      : cabac=1 / ref=3 / deblock=1:0:0 / analyse=0x3:0x113 / me=hex / subme=7 / psy=1 / psy_rd=1.00:0.00 / mixed_ref=1 / me_range=16 / chroma_me=1 / trellis=1 / 8x8dct=1 / cqm=0 / deadzone=21,11 / fast_pskip=1 / chroma_qp_offset=-2 / threads=34 / lookahead_threads=5 / sliced_threads=0 / nr=0 / decimate=1 / interlaced=0 / bluray_compat=0 / constrained_intra=0 / bframes=6 / b_pyramid=2 / b_adapt=1 / b_bias=0 / direct=1 / weightb=1 / open_gop=0 / weightp=2 / keyint=48 / keyint_min=25 / scenecut=0 / intra_refresh=0 / rc_lookahead=40 / rc=2pass / mbtree=1 / bitrate=5120 / ratetol=1.0 / qcomp=0.60 / qpmin=0 / qpmax=69 / qpstep=4 / cplxblur=20.0 / qblur=0.5 / vbv_maxrate=7680 / vbv_bufsize=20480 / nal_hrd=none / filler=0 / ip_ratio=1.40 / aq=1:1.00
Язык                                     : English
Default                                  : Да
Forced                                   : Нет

Аудио #1
Идентификатор                            : 2
Формат                                   : AAC LC
Формат/Информация                        : Advanced Audio Codec Low Complexity
Идентификатор кодека                     : A_AAC-2
Продолжительность                        : 1 ч. 12 м.
Битрейт                                  : 256 Кбит/сек
Каналы                                   : 2 канала
Channel layout                           : L R
Частота                                  : 48,0 КГц
Частота кадров                           : 46,875 кадров/сек (1024 SPF)
Метод сжатия                             : С потерями
Размер потока                            : 133 Мбайт (5%)
Заголовок                                : Dubbing
Язык                                     : Russian
Default                                  : Да
Forced                                   : Нет

Аудио #2
Идентификатор                            : 3
Формат                                   : AAC LC
Формат/Информация                        : Advanced Audio Codec Low Complexity
Идентификатор кодека                     : A_AAC-2
Продолжительность                        : 1 ч. 12 м.
Битрейт                                  : 256 Кбит/сек
Каналы                                   : 2 канала
Channel layout                           : L R
Частота                                  : 48,0 КГц
Частота кадров                           : 46,875 кадров/сек (1024 SPF)
Метод сжатия                             : С потерями
Размер потока                            : 133 Мбайт (5%)
Заголовок                                : Original
Язык                                     : English
Default                                  : Нет
Forced                                   : Нет

Report created by                        : MediaInfoLib - v21.09
Report created on                        : UTC 2021-11-20 07:40:59

скриншот  скриншот  скриншот  
pb.wtf



Скачать Город собак через торрент https://c.radikal.ru/c05/2111/d9/fd8510145512.png Скачать, смотреть онлайн Город собак бесплантно в хорошем качестве Описание: Город собак - это уникальное место, где всё устроено как у людей, хотя живут там одни четвероногие. Но однажды в городке ... 5 10 1
Торрент: Зарегистрирован [2021-11-20 17:09] · скачан: 44 раз
Статус: √ проверено
Размер: 2.85 GB
Как cкачать? Как скачать Город собак через торрент | UTorrent

28-11-2019 20:33  

Отключить всю рекламу на сайте

    Дорогой пользователь! Огромная просьба, поблагодарите релизера, оцените раздачу и оставьте свои комментарий, если Вы скачали Город собак через торрент бесплатно!
    Комментировать посты могут только пользователи прошедшие не сложную регистрацию
    Показать сообщения:    

    Город собак через торрент
    Скачать бесплатно Город собак
    Город собак скачать торрент
    Город собак смотреть онлайн
    Cкачать фильм Город собак бесплатно
    Город собак скачать торрент в хорошем качестве
    Город собак смотреть онлайн бесплатно в хорошем качестве


    Вы не можете начинать темы
    Вы не можете отвечать на сообщения
    Вы не можете редактировать свои сообщения
    Вы не можете удалять свои сообщения
    Вы не можете голосовать в опросах
    Вы не можете прикреплять файлы к сообщениям
    Вы можете скачивать файлы