Присоединяйтесь к нам в Telegram!, здесь всегда актуальный адрес сайта, оперативная поддержка и многое другое!!

>

5.9

iTunes

7.4

iTunes

9.4

1 сезон

1

7.4

2 сезон

7.2

iTunes

7.3

1 сезон

13

6.1

iTunes

8.3

GOG

30

ULTIMATE

pack

9.9

Лицензия

ВАЖНО

ИГРА 18+

pack

7.3

RePack

MK11

7.7

RePack

jed

7.8

RePack

fifa19

8.5

RePack

RDR2

RePack

NEED FOR SPEED™ PAYBACK

5 сезон

9 сезон

Бесстыжие 9 сезон

Все сериалы

все сериалы на PB.wtf

RePack

FAR CRY 5

Anonymous, доброй ночи, мы катастрофически не успеваем собрать деньги на оплату серверов, помогите нам пожалуйста 5,10,15р., для нас важна любая помощь . В качестве благодарности мы отключим Вам всю рекламу на сайте (укажите свой ник в строку Ваше имя)!

×
  
Magnet ссылка

Чужая Земля / Приливы / Tides / The Colony (Тим Фельбаум) [2021, Фантастика, Триллер, HDRip-AVC] DUB [IVI] от ExKinoRay pb.wtf

Чужая Земля через торрент pb.wtf

Раздают: 16 [ 0.1 KB/s ]
Размер: 2.05 GB | Добавлен: 6 д. назад | Торрент скачан:161 раз
Смотреть онлайн Чужая Земля | Скачать    Ребята, помогите собрать деньги на оплату серверов!!!

20-11-2021 20:36 Чужая Земля Скачать торрент  


Чужая Земля / Приливы / Tides / The Colony
Информация о фильме:
Название: Чужая Земля / Приливы
Оригинальное название: Tides / The Colony
Год выхода: 2021
Жанр: Фантастика, триллер
Режиссер: Тим Фельбаум

В ролях: Нора Арнезедер, Сара-Софи Бусснина, Иэн Глен, Сопе Дирису, Йоэль Басман, Себастьян Роше, Белла Бадинг, Хонг Бергхоф, Луна Мвези, Николя Перо

Описание: Будущее. Земля после глобальной экологической катастрофы полностью покрыта водой. Правящей элите удаётся колонизировать планету Кеплер-209, но люди больше не могут иметь детей из-за особых условий в новой атмосфере. Трое ученых отправляются на Землю узнать, возможно ли начать всё сначала. Их корабль терпит крушение при посадке на воду. В результате из всех астронавтов выживает лишь одна девушка. Теперь судьба человечества лежит на ее плечах.



Страна: Германия, Швейцария
Студия: Berghaus, Wöbke Filmproduktion, Vega FilmConstantin Film
Продолжительность: 01:44:31
Перевод: Дублированный - IVI



Информация о файле:
Кодек: AVC
Формат: MKV
Качество: HDRip-AVC
Видео: MPEG-4 AVC, 1024x428, 23.976 fps, 1980 kbps
Аудио RU: AC3, 6 ch, 48 kHz, 384 kbps
Аудио EN: AC3, 6 ch, 48 kHz, 448 kbps
Субтитры: Английские

x264 info: frame I:1060 Avg QP:11.53 size: 49736
x264 info: frame P:30418 Avg QP:14.29 size: 21738
x264 info: frame B:118879 Avg QP:15.95 size: 7032
x264 info: consecutive B-frames: 2.2% 2.4% 6.3% 10.4% 12.4% 51.3% 6.1% 1.1% 1.5% 3.1% 3.2%
General
Unique ID : 28400703610548632620932288738473683424 (0x155DC6CC25669A488E0CDCB5420229E0)
Complete name : D:uTorrentРипы wolf1245Chuzhaya.Zemlya.2021.DUB.IVI.HDRip-AVC.[wolf1245.ExKinoRay].mkv
Format : Matroska
Format version : Version 4
File size : 2.05 GiB
Duration : 1 h 44 min
Overall bit rate : 2 811 kb/s
Movie name : Chuzhaya.Zemlya.2021.DUB.IVI.HDRip-AVC.[wolf1245.ExKinoRay]
Encoded date : UTC 2021-11-20 20:19:49
Writing application : mkvmerge v63.0.0 ('Everything') 64-bit
Writing library : libebml v1.4.2 + libmatroska v1.6.4
Video
ID : 1
Format : AVC
Format/Info : Advanced Video Codec
Format profile : High@L4.1
Format settings : CABAC / 12 Ref Frames
Format settings, CABAC : Yes
Format settings, Reference frames : 12 frames
Codec ID : V_MPEG4/ISO/AVC
Duration : 1 h 44 min
Bit rate : 1 980 kb/s
Width : 1 024 pixels
Height : 428 pixels
Display aspect ratio : 2.40:1
Frame rate mode : Constant
Frame rate : 23.976 (24000/1001) FPS
Color space : YUV
Chroma subsampling : 4:2:0
Bit depth : 8 bits
Scan type : Progressive
Bits/(Pixel*Frame) : 0.188
Stream size : 1.44 GiB (70%)
Title : -=[wolf1245.ExKinoRay]=-
Writing library : x264 core 163 r3060 5db6aa6
Encoding settings : cabac=1 / ref=12 / deblock=1:-3:-3 / analyse=0x3:0x133 / me=umh / subme=11 / psy=1 / psy_rd=1.02:0.02 / mixed_ref=1 / me_range=48 / chroma_me=1 / trellis=2 / 8x8dct=1 / cqm=0 / deadzone=21,11 / fast_pskip=1 / chroma_qp_offset=-3 / threads=10 / lookahead_threads=2 / sliced_threads=0 / nr=0 / decimate=0 / interlaced=0 / bluray_compat=0 / constrained_intra=0 / bframes=10 / b_pyramid=2 / b_adapt=2 / b_bias=0 / direct=3 / weightb=1 / open_gop=0 / weightp=2 / keyint=240 / keyint_min=24 / scenecut=40 / intra_refresh=0 / rc_lookahead=60 / rc=2pass / mbtree=0 / bitrate=1980 / ratetol=1.0 / qcomp=0.60 / qpmin=0 / qpmax=69 / qpstep=4 / cplxblur=20.0 / qblur=0.5 / vbv_maxrate=50000 / vbv_bufsize=62500 / nal_hrd=none / filler=0 / ip_ratio=1.40 / pb_ratio=1.30 / aq=1:0.80
Language : German
Default : Yes
Forced : No
Audio #1
ID : 2
Format : AC-3
Format/Info : Audio Coding 3
Commercial name : Dolby Digital
Codec ID : A_AC3
Duration : 1 h 44 min
Bit rate mode : Constant
Bit rate : 384 kb/s
Channel(s) : 6 channels
Channel layout : L R C LFE Ls Rs
Sampling rate : 48.0 kHz
Frame rate : 31.250 FPS (1536 SPF)
Compression mode : Lossy
Stream size : 287 MiB (14%)
Title : DUB (IVI)
Language : Russian
Service kind : Complete Main
Default : Yes
Forced : Yes
Audio #2
ID : 3
Format : AC-3
Format/Info : Audio Coding 3
Commercial name : Dolby Digital
Codec ID : A_AC3
Duration : 1 h 44 min
Bit rate mode : Constant
Bit rate : 448 kb/s
Channel(s) : 6 channels
Channel layout : L R C LFE Ls Rs
Sampling rate : 48.0 kHz
Frame rate : 31.250 FPS (1536 SPF)
Compression mode : Lossy
Stream size : 335 MiB (16%)
Title : Original
Language : English
Service kind : Complete Main
Default : Yes
Forced : No
Text #1
ID : 4
Format : UTF-8
Codec ID : S_TEXT/UTF8
Codec ID/Info : UTF-8 Plain Text
Duration : 1 h 34 min
Bit rate : 25 b/s
Count of elements : 719
Stream size : 17.4 KiB (0%)
Language : English
Default : No
Forced : No
Text #2
ID : 5
Format : UTF-8
Codec ID : S_TEXT/UTF8
Codec ID/Info : UTF-8 Plain Text
Duration : 1 h 35 min
Bit rate : 30 b/s
Count of elements : 904
Stream size : 21.3 KiB (0%)
Language : English
Default : No
Forced : No
Menu
00:00:00.000 : :Chapter 01
00:04:39.988 : :Chapter 02
00:09:50.924 : :Chapter 03
00:14:23.696 : :Chapter 04
00:21:01.594 : :Chapter 05
00:28:27.289 : :Chapter 06
00:36:04.371 : :Chapter 07
00:42:50.943 : :Chapter 08
00:47:34.935 : :Chapter 09
00:51:06.272 : :Chapter 10
00:56:27.134 : :Chapter 11
01:02:43.468 : :Chapter 12
01:08:45.371 : :Chapter 13
01:18:05.848 : :Chapter 14
01:24:19.471 : :Chapter 15
01:33:33.983 : :Chapter 16
Релиз от:
Автор релиза:
pb.wtf



Скачать Чужая Земля через торрент https://i6.imageban.ru/out/2021/11/19/9e4ac51cf77cd4c734918b6e4a13259f.jpg Скачать, смотреть онлайн Чужая Земля бесплантно в хорошем качестве Описание: Будущее. Земля после глобальной экологической катастрофы полностью покрыта водой. Правящей элите удаётся колонизировать планету ... 8.2 10 5
Торрент: Зарегистрирован [2021-11-20 20:36] · скачан: 161 раз
Статус: √ проверено
Размер: 2.05 GB
Как cкачать? Как скачать Чужая Земля через торрент | UTorrent

28-11-2019 20:33  

Отключить всю рекламу на сайте

    Дорогой пользователь! Огромная просьба, поблагодарите релизера, оцените раздачу и оставьте свои комментарий, если Вы скачали Чужая Земля через торрент бесплатно!
    Комментировать посты могут только пользователи прошедшие не сложную регистрацию
    Показать сообщения:    

    Чужая Земля через торрент
    Скачать бесплатно Чужая Земля
    Чужая Земля скачать торрент
    Чужая Земля смотреть онлайн
    Cкачать фильм Чужая Земля бесплатно
    Чужая Земля скачать торрент в хорошем качестве
    Чужая Земля смотреть онлайн бесплатно в хорошем качестве


    Вы не можете начинать темы
    Вы не можете отвечать на сообщения
    Вы не можете редактировать свои сообщения
    Вы не можете удалять свои сообщения
    Вы не можете голосовать в опросах
    Вы не можете прикреплять файлы к сообщениям
    Вы можете скачивать файлы