Присоединяйтесь к нам в Telegram!, здесь всегда актуальный адрес сайта, оперативная поддержка и многое другое!!

>

5.9

iTunes

7.4

iTunes

9.4

1 сезон

1

7.4

2 сезон

7.2

iTunes

7.3

1 сезон

13

6.1

iTunes

8.3

GOG

30

ULTIMATE

pack

9.9

Лицензия

ВАЖНО

ИГРА 18+

pack

7.3

RePack

MK11

7.7

RePack

jed

7.8

RePack

fifa19

8.5

RePack

RDR2

RePack

NEED FOR SPEED™ PAYBACK

5 сезон

9 сезон

Бесстыжие 9 сезон

Все сериалы

все сериалы на PB.wtf

RePack

FAR CRY 5

Anonymous, доброй ночи, мы катастрофически не успеваем собрать деньги на оплату серверов, помогите нам пожалуйста 5,10,15р., для нас важна любая помощь . В качестве благодарности мы отключим Вам всю рекламу на сайте (укажите свой ник в строку Ваше имя)!

×
  
Magnet ссылка

Тайна Сен-Тропе / Mystère à Saint-Tropez (Николя Бенаму) [2021, Комедия, криминал, детектив, WEB-DL 1080p] DUB [iTunes] pb.wtf

Тайна Сен-Тропе через торрент pb.wtf

Раздают: 6 [ 4 KB/s ]
Размер: 3.17 GB | Добавлен: 9 д. назад | Торрент скачан:111 раз
Смотреть онлайн Тайна Сен-Тропе | Скачать    Ребята, помогите собрать деньги на оплату серверов!!!

22-11-2021 15:35 Тайна Сен-Тропе Скачать торрент  

Тайна Сен-Тропе | Mystère à Saint-Tropez
Год выпуска: 2021
Страна: Франция, Бельгия
Студия: Canal+ [fr], Ciné, Curiosa Films, France 2 Cinéma, France Télévision, Investisseurs Tax Shelter, Le Tax Shelter du Gouvernement Fédéral de Belgique, Ouille Productions, Région de Bruxelles-Capitale, Studio Canal, uFund, uMedia Family
Жанр: Комедия, криминал, детектив
Продолжительность: 01:29:57
Перевод: Дублированный | iTunes
Субтитры: отсутствуют

Режиссер: Николя Бенаму

rating

В ролях: Кристиан Клавье, Бенуа Пульворд, Тьерри Лермитт, Жером Коммандёр, Росси де Пальма, Вирджини Хок, Жерар Депардье, Венсан Дезанья, Николя Бриансон, Жиль Альма

Описание: Убийство — это не повод для смеха. Обычно. Но вот попробуйте сдержать улыбку, когда преступление происходит среди харизматичных богачей на курорте Сен-Тропе, а расследование ведет весьма эксцентричный и не самый смышленый сыщик. Мотив есть у каждого, а вот с дедукцией — явно дефицит! Чтобы распутать это дело, горе-детективу придется притвориться дворецким и затеряться между пафосными знаменитостями и знойными женщинами в этом Провансе гламура и роскоши. Что ж, такой отпуск точно будет незабываемым.

Качество: WEB-DL 1080p
Формат: MKV

Видео: 1920x804 (2.40:1), 24 fps, MPEG-4 AVC ~ 4663 Kbps avg, 0.126 bit/pixel
Аудио: 48 kHz, AC3 Dolby Digital, 3/2 (L, C, R, l, r) + LFE ch, ~384 Kbps
скриншот  скриншот  скриншот  скриншот  скриншот  

Общее
Уникальный идентификатор : 248408260046289290973475778458125001947 (0xBAE1B0CE26E15DD38440C5837DA6E4DB)
Полное имя : Mystere.a.Saint.Tropez.2021.1080p.WEB-DL.DD.5.1.MegaPeer.mkv
Формат : Matroska
Версия формата : Version 4
Размер файла : 3,17 Гбайт
Продолжительность : 1 ч. 29 м.
Общий поток : 5 050 Кбит/сек
Дата кодирования : UTC 2021-11-22 14:06:10
Программа кодирования : mkvmerge v15.0.0 ('Duel with the Devil') 64-bit
Библиотека кодирования : libebml v1.3.5 + libmatroska v1.4.5
Обложка : Yes
Attachments : cover.jpg

Видео
Идентификатор : 1
Формат : AVC
Формат/Информация : Advanced Video Codec
Профиль формата : High@L4
Настройки формата : CABAC / 5 Ref Frames
Параметр CABAC формата : Да
Параметр RefFrames формата : 5 кадров
Идентификатор кодека : V_MPEG4/ISO/AVC
Продолжительность : 1 ч. 29 м.
Битрейт : 4 663 Кбит/сек
Ширина : 1 920 пикселей
Высота : 804 пикселя
Соотношение сторон : 2,40:1
Режим частоты кадров : Постоянный
Частота кадров : 24,000 кадра/сек
Цветовое пространство : YUV
Субдискретизация насыщенности : 4:2:0
Битовая глубина : 8 бит
Тип развёртки : Прогрессивная
Бит/(Пиксели*Кадры) : 0.126
Размер потока : 2,93 Гбайт (92%)
Язык : English
Default : Да
Forced : Нет
Цветовой диапазон : Limited
Основные цвета : BT.709
Характеристики трансфера : BT.709
Коэффициенты матрицы : BT.709

Аудио
Идентификатор : 2
Формат : AC-3
Формат/Информация : Audio Coding 3
Коммерческое название : Dolby Digital
Идентификатор кодека : A_AC3
Продолжительность : 1 ч. 29 м.
Вид битрейта : Постоянный
Битрейт : 384 Кбит/сек
Каналы : 6 каналов
Channel layout : L R C LFE Ls Rs
Частота : 48,0 КГц
Частота кадров : 31,250 кадров/сек (1536 SPF)
Метод сжатия : С потерями
Задержка видео : -42 мс.
Размер потока : 247 Мбайт (8%)
Заголовок : DBU | iTunes
Язык : Russian
Service kind : Complete Main
Default : Да
Forced : Нет

Меню
00:00:00.000 : en:Глава 1
00:08:12.333 : en:Глава 2
00:13:09.124 : en:Глава 3
00:21:29.957 : en:Глава 4
00:26:51.790 : en:Глава 5
00:32:43.665 : en:Глава 6
00:41:28.498 : en:Глава 7
00:49:45.164 : en:Глава 8
00:56:45.705 : en:Глава 9
01:03:31.830 : en:Глава 10
01:11:42.871 : en:Глава 11
01:18:17.871 : en:Глава 12
01:24:33.662 : en:Глава 13

pb.wtf



Скачать Тайна Сен-Тропе через торрент https://i116.fastpic.org/big/2021/1122/c4/988f29d11612e37aefbb01adf86441c4.jpg Скачать, смотреть онлайн Тайна Сен-Тропе бесплантно в хорошем качестве Описание: Убийство — это не повод для смеха. Обычно. Но вот попробуйте сдержать улыбку, когда преступление происходит среди харизматичных ... 10 10 5
Торрент: Зарегистрирован [2021-11-22 15:35] · скачан: 111 раз
Статус: √ проверено
Размер: 3.17 GB
Как cкачать? Как скачать Тайна Сен-Тропе через торрент | UTorrent

% Раздел Тема Автор DL S | L
Фильмы 2021 [DVDrip, WEB-DLRip, HDrip] (DUB, MVO) [ 1.56 GB ] Тайна Сен-Тропе / Mystère à Saint-Tropez [2021 WEB-DLRip-AVC] от ExKinoRay Lithuania Скачать
3 | 0
Фильмы 2021 [DVDrip, WEB-DLRip, HDrip] (DUB, MVO) [ 1.46 GB ] Тайна Сен-Тропе / Mystère à Saint-Tropez [2021 WEB-DLRip] bober100 Скачать
5 | 0

28-11-2019 20:33  

Отключить всю рекламу на сайте

    Дорогой пользователь! Огромная просьба, поблагодарите релизера, оцените раздачу и оставьте свои комментарий, если Вы скачали Тайна Сен-Тропе через торрент бесплатно!
    Комментировать посты могут только пользователи прошедшие не сложную регистрацию
    Показать сообщения:    

    Тайна Сен-Тропе через торрент
    Скачать бесплатно Тайна Сен-Тропе
    Тайна Сен-Тропе скачать торрент
    Тайна Сен-Тропе смотреть онлайн
    Cкачать фильм Тайна Сен-Тропе бесплатно
    Тайна Сен-Тропе скачать торрент в хорошем качестве
    Тайна Сен-Тропе смотреть онлайн бесплатно в хорошем качестве


    Вы не можете начинать темы
    Вы не можете отвечать на сообщения
    Вы не можете редактировать свои сообщения
    Вы не можете удалять свои сообщения
    Вы не можете голосовать в опросах
    Вы не можете прикреплять файлы к сообщениям
    Вы можете скачивать файлы