Доктор Стрэндж

Лицензия

Добыча

Дубляж

Уэнсдэй

1 сезон

Тор

Дубляж

В эфире

Дубляж

Там, где раки поют

MVO

Властелин колец

1 сезон

Deluxe

pack

Рекомендуем

30

Пиратка

ВАЖНО

ВАЖНО

Ghostwire

Пиратка

jed

RePack

nioh2

RePack

RDR2

RePack

NEED FOR SPEED™ PAYBACK

RePack

скачать торрент

Кинопоиск HD

Острые козырьки 6 сезон

6 сезон

FAR CRY 6

RePack

скачать торрент

Лицензия

скачать торрент

MVO

1

1 сезон

скачать торрент

1 сезон

скачать торрент

Лицензия

  

Убийство онлайн / Дома безопаснее / Safer at Home (Уилл Верник) [2021, Триллер, BD Remux 1080p] Дубляж [Кинопоиск HD]

Убийство онлайн через торрент pb.wtf

Размер: 14.87 GB | Добавлен: 1 год назад | Торрент скачан:12 раз
Смотреть онлайн | Скачать   

22-11-2021 18:16 Убийство онлайн Скачать торрент  

Убийство онлайн | Дома безопаснее | Safer at Home
Год выпуска: 2021
Страна: США
Студия: 7930 Entertainment, Showdown Productions, Voltage Pictures
Жанр: Триллер
Продолжительность: 01:24:45
Перевод: Дублированный | Кинопоиск HD
Субтитры: Английские

Режиссер: Уилл Верник

rating

В ролях: Джослин Хадон, Эмма Лахана, Элиса Эллепач, Эдвин Браун, Дэн Дж. Джонсон, Майкл Куписк, Дэниэл Робер, Лия Бозонелис, Кэти Л. Холл, Марк Ирвингсен

Описание: Распространяющаяся пандемия коронавируса вызывает настоящий хаос в Лос-Анджелесе, а город трансформируется в штат полицейских. Главные герои устраивают вечеринку онлайн в зуме, чтобы играть всю ночь в видеоигры, пробовать наркотики и спиртное. Но после употребления экстази их жизнь дома превращается в ужас.

Качество: BD Remux 1080p
Формат: MKV

Видео: MPEG-4 AVC, 1920x1080, 22.9 Mbit/s, 23.976 fps
Аудио #01: 48 kHz, AC3, 5.1, 384 Kbps | Дублированный | Кинопоиск HD | RUS |
Аудио #02: 48 kHz, DTS-HD MA, 5.1, 1810 Kbps | Оригинал | ENG |
скриншот  скриншот  скриншот  скриншот  скриншот  

General
Unique ID : 242826039127884729086153842211542075165 (0xB6AE98109A3D28027EA764591FA5071D)
Complete name : E:VideoSafer.at.Home.2021.BDREMUX.1080p.seleZen.mkv
Format : Matroska
Format version : Version 4
File size : 14.9 GiB
Duration : 1 h 24 min
Overall bit rate mode : Variable
Overall bit rate : 25.1 Mb/s
Movie name : Safer at Home 2021 from seleZen
Encoded date : UTC 2021-11-22 07:18:07
Writing application : mkvmerge v59.0.0 ('Shining Star') 64-bit
Writing library : libebml v1.4.2 + libmatroska v1.6.4

Video
ID : 1
Format : AVC
Format/Info : Advanced Video Codec
Format profile : [email protected]
Format settings : CABAC / 4 Ref Frames
Format settings, CABAC : Yes
Format settings, Reference frames : 4 frames
Codec ID : V_MPEG4/ISO/AVC
Duration : 1 h 24 min
Bit rate mode : Variable
Bit rate : 22.9 Mb/s
Maximum bit rate : 34.0 Mb/s
Width : 1 920 pixels
Height : 1 080 pixels
Display aspect ratio : 16:9
Frame rate mode : Constant
Frame rate : 23.976 (23976/1000) FPS
Original frame rate : 23.976 (24000/1001) FPS
Color space : YUV
Chroma subsampling : 4:2:0
Bit depth : 8 bits
Scan type : Progressive
Bits/(Pixel*Frame) : 0.461
Stream size : 13.6 GiB (91%)
Language : English
Default : No
Forced : No

Audio #1
ID : 2
Format : AC-3
Format/Info : Audio Coding 3
Commercial name : Dolby Digital
Codec ID : A_AC3
Duration : 1 h 24 min
Bit rate mode : Constant
Bit rate : 384 kb/s
Channel(s) : 6 channels
Channel layout : L R C LFE Ls Rs
Sampling rate : 48.0 kHz
Frame rate : 31.250 FPS (1536 SPF)
Compression mode : Lossy
Stream size : 233 MiB (2%)
Title : Дубляж
Language : Russian
Service kind : Complete Main
Default : Yes
Forced : Yes

Audio #2
ID : 3
Format : DTS XLL
Format/Info : Digital Theater Systems
Commercial name : DTS-HD Master Audio
Codec ID : A_DTS
Duration : 1 h 24 min
Bit rate mode : Variable
Bit rate : 1 810 kb/s
Channel(s) : 6 channels
Channel layout : C L R Ls Rs LFE
Sampling rate : 48.0 kHz
Frame rate : 93.750 FPS (512 SPF)
Bit depth : 16 bits
Compression mode : Lossless
Stream size : 1.07 GiB (7%)
Title : Original
Language : English
Default : No
Forced : No

Menu
00:00:00.000 : Глава 01
00:10:37.095 : Глава 02
00:20:52.334 : Глава 03
00:31:51.201 : Глава 04
00:43:11.047 : Глава 05
00:51:24.248 : Глава 06
01:01:49.831 : Глава 07
01:11:53.559 : Глава 08
01:22:16.014 : Глава 09




Скачать Убийство онлайн через торрент https://i115.fastpic.org/big/2021/0728/08/0b15629b18dc09f3d60e112ad388b008.jpg Скачать, смотреть онлайн Убийство онлайн бесплантно в хорошем качестве Описание: Распространяющаяся пандемия коронавируса вызывает настоящий хаос в Лос-Анджелесе, а город трансформируется в штат полицейских. ... 10 10 2
Торрент: Зарегистрирован [2021-11-22 18:16] · скачан: 12 раз
Статус: √ проверено
Размер: 14.87 GB
Как cкачать? Как скачать Убийство онлайн через торрент | UTorrent

% Раздел Тема Автор DL S | L
Фильмы [HD 720p, 1080p] (Хороший звук DUB, MVO) [ 7.11 GB ] Убийство онлайн / Дома безопаснее / Safer at Home | DUB | 1080p bober100 Скачать
1 | 0
Фильмы 2021 [DVDrip, WEB-DLRip, HDrip] (DUB, MVO) [ 1.43 GB ] Убийство онлайн / Дома безопаснее / Safer at Home | DUB | BDRip bober100 Скачать
1 | 0

28-11-2019 20:33  


Отключить вcю реклaмy на сайте, в т.ч. и в плеере онлайн просмотра!

    Дорогой пользователь! Огромная просьба, поблагодарите релизера, оцените раздачу и оставьте свои комментарий, если Вы скачали Убийство онлайн через торрент бесплатно!!
    Комментировать посты могут только пользователи прошедшие не сложную регистрацию
    Показать сообщения:    


    Убийство онлайн через торрент
    Скачать бесплатно Убийство онлайн
    Убийство онлайн скачать торрент
    Убийство онлайн смотреть онлайн
    Cкачать фильм Убийство онлайн бесплатно
    Убийство онлайн скачать торрент в хорошем качестве
    Убийство онлайн смотреть онлайн бесплатно в хорошем качестве
    Вы не можете начинать темы
    Вы не можете отвечать на сообщения
    Вы не можете редактировать свои сообщения
    Вы не можете удалять свои сообщения
    Вы не можете голосовать в опросах
    Вы не можете прикреплять файлы к сообщениям
    Вы можете скачивать файлы
    Убийство онлайн / Дома безопаснее / Safer at Home [2021, Триллер, BD Remux 1080p] Дубляж [Кинопоиск HD] смотреть онлайн, скачать торрент picoco.icu