Присоединяйтесь к нам в Telegram!, здесь всегда актуальный адрес сайта, оперативная поддержка и многое другое!!

>

5.9

iTunes

7.4

iTunes

9.4

1 сезон

1

7.4

2 сезон

7.2

iTunes

7.3

1 сезон

13

6.1

iTunes

8.3

GOG

30

ULTIMATE

pack

9.9

Лицензия

ВАЖНО

ИГРА 18+

pack

7.3

RePack

MK11

7.7

RePack

jed

7.8

RePack

fifa19

8.5

RePack

RDR2

RePack

NEED FOR SPEED™ PAYBACK

5 сезон

9 сезон

Бесстыжие 9 сезон

Все сериалы

все сериалы на PB.wtf

RePack

FAR CRY 5

Anonymous, добрый день, мы катастрофически не успеваем собрать деньги на оплату серверов, помогите нам пожалуйста 5,10,15р., для нас важна любая помощь . В качестве благодарности мы отключим Вам всю рекламу на сайте (укажите свой ник в строку Ваше имя)!

×
  
Magnet ссылка

Искушение / Benedetta (Пол Верховен) [2021, драма, мелодрама, биография, история, HDRip-AVC] MVO [Jaskier] от ExKinoRay pb.wtf

Искушение через торрент pb.wtf

Раздают: 7 [ 12 KB/s ]
Размер: 1.86 GB | Добавлен: 8 д. назад | Торрент скачан:108 раз
Смотреть онлайн Искушение | Скачать    Ребята, помогите собрать деньги на оплату серверов!!!

23-11-2021 15:49 Искушение Скачать торрент  


Искушение / Benedetta
Информация о фильме:
Название: Искушение
Оригинальное название: Benedetta
Год выхода: 2021
Жанр: драма, мелодрама, биография, история
Режиссер: Пол Верховен

В ролях: Виржини Эфира, Шарлотта Рэмплинг, Дафна Патакия, Ламбер Вильсон, Оливье Рабурден, Луиз Шевильот, Эрве Пьер, Клотильда Куро, Давид Клавель, Гилен Лондез

Описание: Италия эпохи Возрождения. Место, где великая красота хладела в руках инквизиторов. Терзаемая эротическими видениями монахиня Бенедетта Карлини влюбляется в новую послушницу, пылкую и безрассудную. Вскоре об их запретной страсти узнают за пределами монастыря.



Страна: Франция, Бельгия, Нидерланды
Студия: SBS Productions, Pathé, France 2 Cinéma
Продолжительность: 02:11:14
Перевод: Профессиональный (многоголосый, закадровый) - Jaskier



Информация о файле:
Кодек: AVC
Формат: MKV
Качество: HDRip-AVC
Видео: MPEG-4 AVC, 1024x428, 23.976 fps, 1650 kb/s
Аудио RU: AC3, 6 ch, 48 kHz, 384 kbps | Tnx.KinoPub
Субтитры: Русские (Full), английские (Full), французские (Full, SDH)

x264 info: frame I:1398 Avg QP:14.39 size: 67915
x264 info: frame P:40648 Avg QP:18.12 size: 19810
x264 info: frame B:146737 Avg QP:20.22 size: 4915
x264 info: consecutive B-frames: 2.9% 2.3% 6.5% 16.6% 17.0% 38.5% 9.5% 3.1% 1.7% 1.0% 0.8%
General
Unique ID : 339490872581021001797927880238771062588 (0xFF679050EFC2D1DB80F31C35F801C73C)
Complete name : D:uTorrentРипы wolf1245Benedetta.2021.MVO.Jaskier.HDRip-AVC.[wolf1245.ExKinoRay].mkv
Format : Matroska
Format version : Version 4
File size : 1.86 GiB
Duration : 2 h 11 min
Overall bit rate : 2 033 kb/s
Movie name : Benedetta.2021.MVO.Jaskier.HDRip-AVC.[wolf1245.ExKinoRay]
Encoded date : UTC 2021-11-23 15:33:44
Writing application : mkvmerge v63.0.0 ('Everything') 64-bit
Writing library : libebml v1.4.2 + libmatroska v1.6.4
Video
ID : 1
Format : AVC
Format/Info : Advanced Video Codec
Format profile : High@L4.1
Format settings : CABAC / 12 Ref Frames
Format settings, CABAC : Yes
Format settings, Reference frames : 12 frames
Codec ID : V_MPEG4/ISO/AVC
Duration : 2 h 11 min
Bit rate : 1 650 kb/s
Width : 1 024 pixels
Height : 428 pixels
Display aspect ratio : 2.40:1
Frame rate mode : Constant
Frame rate : 23.976 (24000/1001) FPS
Color space : YUV
Chroma subsampling : 4:2:0
Bit depth : 8 bits
Scan type : Progressive
Bits/(Pixel*Frame) : 0.157
Stream size : 1.51 GiB (81%)
Title : -=[wolf1245.ExKinoRay]=-
Writing library : x264 core 163 r3060 5db6aa6
Encoding settings : cabac=1 / ref=12 / deblock=1:-3:-3 / analyse=0x3:0x133 / me=umh / subme=11 / psy=1 / psy_rd=1.02:0.05 / mixed_ref=1 / me_range=48 / chroma_me=1 / trellis=2 / 8x8dct=1 / cqm=0 / deadzone=21,11 / fast_pskip=1 / chroma_qp_offset=-3 / threads=10 / lookahead_threads=2 / sliced_threads=0 / nr=0 / decimate=0 / interlaced=0 / bluray_compat=0 / constrained_intra=0 / bframes=10 / b_pyramid=2 / b_adapt=2 / b_bias=0 / direct=3 / weightb=1 / open_gop=0 / weightp=2 / keyint=240 / keyint_min=24 / scenecut=40 / intra_refresh=0 / rc_lookahead=60 / rc=2pass / mbtree=0 / bitrate=1650 / ratetol=1.0 / qcomp=0.60 / qpmin=0 / qpmax=69 / qpstep=4 / cplxblur=20.0 / qblur=0.5 / vbv_maxrate=50000 / vbv_bufsize=62500 / nal_hrd=none / filler=0 / ip_ratio=1.40 / pb_ratio=1.35 / aq=1:0.80
Language : French
Default : Yes
Forced : No
Color range : Limited
Color primaries : BT.709
Transfer characteristics : BT.709
Matrix coefficients : BT.709
Audio
ID : 2
Format : AC-3
Format/Info : Audio Coding 3
Commercial name : Dolby Digital
Codec ID : A_AC3
Duration : 2 h 11 min
Bit rate mode : Constant
Bit rate : 384 kb/s
Channel(s) : 6 channels
Channel layout : L R C LFE Ls Rs
Sampling rate : 48.0 kHz
Frame rate : 31.250 FPS (1536 SPF)
Compression mode : Lossy
Stream size : 360 MiB (19%)
Title : Jaskier | MVO
Language : Russian
Service kind : Complete Main
Default : Yes
Forced : No
Text #1
ID : 3
Format : UTF-8
Codec ID : S_TEXT/UTF8
Codec ID/Info : UTF-8 Plain Text
Duration : 2 h 4 min
Bit rate : 66 b/s
Count of elements : 1216
Stream size : 60.8 KiB (0%)
Title : Full
Language : Russian
Default : No
Forced : No
Text #2
ID : 4
Format : UTF-8
Codec ID : S_TEXT/UTF8
Codec ID/Info : UTF-8 Plain Text
Duration : 2 h 6 min
Bit rate : 37 b/s
Count of elements : 1227
Stream size : 34.8 KiB (0%)
Title : Full
Language : English
Default : No
Forced : No
Text #3
ID : 5
Format : UTF-8
Codec ID : S_TEXT/UTF8
Codec ID/Info : UTF-8 Plain Text
Duration : 2 h 2 min
Bit rate : 43 b/s
Count of elements : 1204
Stream size : 38.5 KiB (0%)
Title : Full
Language : French
Default : No
Forced : No
Text #4
ID : 6
Format : UTF-8
Codec ID : S_TEXT/UTF8
Codec ID/Info : UTF-8 Plain Text
Duration : 2 h 6 min
Bit rate : 62 b/s
Count of elements : 1957
Stream size : 57.3 KiB (0%)
Title : SDH
Language : French
Default : No
Forced : No
Menu
00:00:00.000 : :Chapter 01
00:11:27.061 : :Chapter 02
00:24:16.121 : :Chapter 03
00:33:50.487 : :Chapter 04
00:44:56.235 : :Chapter 05
00:56:07.364 : :Chapter 06
01:07:42.600 : :Chapter 07
01:22:42.749 : :Chapter 08
01:32:29.836 : :Chapter 09
01:43:45.010 : :Chapter 10
01:54:00.375 : :Chapter 11
02:06:00.428 : :Chapter 12
Релиз от:
Автор релиза:
pb.wtf



Скачать Искушение через торрент https://i116.fastpic.org/big/2021/1122/48/40eca105f2f086a97dc76378f341bf48.jpg Скачать, смотреть онлайн Искушение бесплантно в хорошем качестве Описание: Италия эпохи Возрождения. Место, где великая красота хладела в руках инквизиторов. Терзаемая эротическими видениями монахиня ... 10 10 4
Info! Золотая раздача, скачанное не засчитывается.
Торрент: Зарегистрирован [2021-11-23 15:49] · скачан: 108 раз
Статус: √ проверено
Размер: 1.86 GB
Как cкачать? Как скачать Искушение через торрент | UTorrent

28-11-2019 20:33  

Отключить всю рекламу на сайте

24-11-2021 07:33 Искушение Скачать торрент  

83 года верховену. понесло старика на какую-то пидерсию. даже не верится, что режиссер этой херни когда-то снял робокопа, вспомнить все и звездный десант. кинопоиск пишет, что фильму отказали в выдаче прокатного удостоверения в России, а в день премьеры фильм сняли с проката в Беларуси. прощай, бывший король кинофантастики, мы будем помнить тебя и твои фильмы!pb.wtf



25-11-2021 07:10 Искушение Скачать торрент  

Нашли мне светочей кинематографа ,Россию и Беларусь .
Ах-ха-ха!!!pb.wtf



25-11-2021 10:08 Искушение Скачать торрент  

Sep-ultura писал(а):

Нашли мне светочей кинематографа ,Россию и Беларусь .
Ах-ха-ха!!!

причем тут светочи? в этих странах традиционно не жалуют содомитовpb.wtf



    Дорогой пользователь! Огромная просьба, поблагодарите релизера, оцените раздачу и оставьте свои комментарий, если Вы скачали Искушение через торрент бесплатно!
    Комментировать посты могут только пользователи прошедшие не сложную регистрацию
    Показать сообщения:    

    Искушение через торрент
    Скачать бесплатно Искушение
    Искушение скачать торрент
    Искушение смотреть онлайн
    Cкачать фильм Искушение бесплатно
    Искушение скачать торрент в хорошем качестве
    Искушение смотреть онлайн бесплатно в хорошем качестве


    Вы не можете начинать темы
    Вы не можете отвечать на сообщения
    Вы не можете редактировать свои сообщения
    Вы не можете удалять свои сообщения
    Вы не можете голосовать в опросах
    Вы не можете прикреплять файлы к сообщениям
    Вы можете скачивать файлы