Присоединяйтесь к нам в Telegram!, здесь всегда актуальный адрес сайта, оперативная поддержка и многое другое!!

>

5.9

iTunes

7.4

iTunes

9.4

1 сезон

1

7.4

2 сезон

7.2

iTunes

7.3

1 сезон

13

6.1

iTunes

8.3

GOG

30

ULTIMATE

pack

9.9

Лицензия

ВАЖНО

ИГРА 18+

pack

7.3

RePack

MK11

7.7

RePack

jed

7.8

RePack

fifa19

8.5

RePack

RDR2

RePack

NEED FOR SPEED™ PAYBACK

5 сезон

9 сезон

Бесстыжие 9 сезон

Все сериалы

все сериалы на PB.wtf

RePack

FAR CRY 5

Anonymous, доброй ночи, мы катастрофически не успеваем собрать деньги на оплату серверов, помогите нам пожалуйста 5,10,15р., для нас важна любая помощь . В качестве благодарности мы отключим Вам всю рекламу на сайте (укажите свой ник в строку Ваше имя)!

×
  
Magnet ссылка

Веном 2 / Venom: Let There Be Carnage (Энди Серкис) [2021, Фантастика, боевик, триллер, приключения, WEB-DL 1080p] DUB [Кинопоиск HD (СинеЛаб СаундМикс)] pb.wtf

Веном 2 через торрент pb.wtf

Раздают: 8 [ 203 KB/s ]
Размер: 5.58 GB | Добавлен: 8 д. назад | Торрент скачан:206 раз
Смотреть онлайн Веном 2 | Скачать    Ребята, помогите собрать деньги на оплату серверов!!!

24-11-2021 02:41 Веном 2 Скачать торрент  

Веном 2 | Venom: Let There Be Carnage
Год выпуска: 2021
Страна: США, Великобритания, Канада
Выпущено: Marvel Entertainment, Pascal Pictures, Sony Pictures Entertainment (SPE)
Жанр: Фантастика, боевик, триллер, приключения
Продолжительность: 01:37:33
Перевод: Дублированный | Кинопоиск HD (СинеЛаб СаундМикс)
Субтитры: Русские (Forced, full), английские

Режиссер: Энди Серкис

rating

В ролях: Том Харди, Вуди Харрельсон, Мишель Уильямс, Наоми Харрис, Рид Скотт, Стивен Грэм, Пегги Лу, Сиан Уэббер, Мишель Гринидж, Роб Боуэн, Лоуренс Спеллман, Литтл Симз, Джек Бандейра, Олумиде Олорунфеми, Скробиус Пип, Амру Аль-Кадхи, Бо Сарджент, Брайан Коупленд, Стюарт Александр, Шон Делани

Описание: Эдди Брок пытается приспособиться к новой жизни, которую ему приходится делить с Веномом, поселившимся в его теле, мыслях и квартире. Но совместный быт не клеится, отношениям с Энн пришел конец, и с карьерой в журналистике тоже все не гладко. У Эдди появляется шанс реабилитироваться в профессии, сделав интервью с серийным убийцей Клетусом Кэссиди. Когда Кэссиди тоже становится носителем инопланетного симбиота, Брок и Веном вынуждены забыть старые обиды, чтобы выступить против еще более сильного и кровожадного монстра — Карнажа.

Качество: WEB-DL 1080p
Формат: MKV

Видео: MPEG-4 AVC, 1920x1040, 6654 Kbit/s, 23.976 fps
Аудио #01: 48 kHz, E-AC3, 5.1, 448 Kbps | Дублированный | Кинопоиск HD (СинеЛаб СаундМикс) | RUS |
Аудио #02: 48 kHz, AC3, 5.1, 448 Kbps | Дублированный | Кинопоиск HD (СинеЛаб СаундМикс) | RUS |
Аудио #03: 48 kHz, E-AC3, 5.1, 640 Kbps | Оригинал | ENG |
скриншот  скриншот  скриншот  скриншот  скриншот  

General
Unique ID : 136829599581874856438644420030265814106 (0x66F06C1C9850BE402BEAC21B2C3BEC5A)
Complete name : E:VideoVenom.Let.There.Be.Carnage.2021.AMZN.WEB-DL.1080p.seleZen.mkv
Format : Matroska
Format version : Version 4
File size : 5.58 GiB
Duration : 1 h 37 min
Overall bit rate : 8 191 kb/s
Movie name : Venom Let There Be Carnage 2021 from seleZen
Encoded date : UTC 2021-11-24 00:47:59
Writing application : mkvmerge v59.0.0 ('Shining Star') 64-bit
Writing library : libebml v1.4.2 + libmatroska v1.6.4

Video
ID : 1
Format : AVC
Format/Info : Advanced Video Codec
Format profile : High@L4
Format settings : CABAC / 4 Ref Frames
Format settings, CABAC : Yes
Format settings, Reference frames : 4 frames
Codec ID : V_MPEG4/ISO/AVC
Duration : 1 h 37 min
Bit rate mode : Constant
Bit rate : 6 654 kb/s
Nominal bit rate : 10 000 kb/s
Width : 1 920 pixels
Height : 1 040 pixels
Display aspect ratio : 1.85:1
Frame rate mode : Constant
Frame rate : 23.976 (24000/1001) FPS
Color space : YUV
Chroma subsampling : 4:2:0
Bit depth : 8 bits
Scan type : Progressive
Bits/(Pixel*Frame) : 0.139
Stream size : 4.53 GiB (81%)
Language : English
Default : Yes
Forced : No
Color range : Limited
Color primaries : BT.709
Transfer characteristics : BT.709
Matrix coefficients : BT.709

Audio #1
ID : 2
Format : E-AC-3
Format/Info : Enhanced AC-3
Commercial name : Dolby Digital Plus
Codec ID : A_EAC3
Duration : 1 h 37 min
Bit rate mode : Constant
Bit rate : 448 kb/s
Channel(s) : 6 channels
Channel layout : L R C LFE Ls Rs
Sampling rate : 48.0 kHz
Frame rate : 31.250 FPS (1536 SPF)
Compression mode : Lossy
Stream size : 312 MiB (5%)
Title : Dub
Language : Russian
Service kind : Complete Main
Default : Yes
Forced : Yes

Audio #2
ID : 3
Format : AC-3
Format/Info : Audio Coding 3
Commercial name : Dolby Digital
Codec ID : A_AC3
Duration : 1 h 37 min
Bit rate mode : Constant
Bit rate : 448 kb/s
Channel(s) : 6 channels
Channel layout : L R C LFE Ls Rs
Sampling rate : 48.0 kHz
Frame rate : 31.250 FPS (1536 SPF)
Compression mode : Lossy
Stream size : 312 MiB (5%)
Title : Dub
Language : Russian
Service kind : Complete Main
Default : No
Forced : No

Audio #3
ID : 4
Format : E-AC-3
Format/Info : Enhanced AC-3
Commercial name : Dolby Digital Plus
Codec ID : A_EAC3
Duration : 1 h 37 min
Bit rate mode : Constant
Bit rate : 640 kb/s
Channel(s) : 6 channels
Channel layout : L R C LFE Ls Rs
Sampling rate : 48.0 kHz
Frame rate : 31.250 FPS (1536 SPF)
Compression mode : Lossy
Stream size : 447 MiB (8%)
Title : Original
Language : English
Service kind : Complete Main
Default : No
Forced : No

Text #1
ID : 5
Format : UTF-8
Codec ID : S_TEXT/UTF8
Codec ID/Info : UTF-8 Plain Text
Duration : 10 min 25 s
Bit rate : 3 b/s
Count of elements : 7
Stream size : 246 Bytes (0%)
Title : Forced
Language : Russian
Default : Yes
Forced : Yes

Text #2
ID : 6
Format : UTF-8
Codec ID : S_TEXT/UTF8
Codec ID/Info : UTF-8 Plain Text
Duration : 1 h 36 min
Bit rate : 72 b/s
Count of elements : 1086
Stream size : 50.7 KiB (0%)
Title : Full
Language : Russian
Default : No
Forced : No

Text #3
ID : 7
Format : UTF-8
Codec ID : S_TEXT/UTF8
Codec ID/Info : UTF-8 Plain Text
Duration : 1 h 35 min
Bit rate : 60 b/s
Count of elements : 1495
Stream size : 42.3 KiB (0%)
Title : Full
Language : English
Default : No
Forced : No

Text #4
ID : 8
Format : UTF-8
Codec ID : S_TEXT/UTF8
Codec ID/Info : UTF-8 Plain Text
Duration : 1 h 36 min
Bit rate : 71 b/s
Count of elements : 1860
Stream size : 50.5 KiB (0%)
Title : SDH
Language : English
Default : No
Forced : No

pb.wtf



Скачать Веном 2 через торрент https://b.radikal.ru/b42/2111/5f/70260b99aaa0.jpg Скачать, смотреть онлайн Веном 2 бесплантно в хорошем качестве Описание: Эдди Брок пытается приспособиться к новой жизни, которую ему приходится делить с Веномом, поселившимся в его теле, мыслях и ... 9.6 10 13
Торрент: Зарегистрирован [2021-11-24 02:41] · скачан: 206 раз
Статус: √ проверено
Размер: 5.58 GB
Как cкачать? Как скачать Веном 2 через торрент | UTorrent

% Раздел Тема Автор DL S | L
Фильмы с украинским озвучиванием [ 5.1 GB ] Веном 2 / Веном 2: Карнаж / Venom: Let There Be Carnage [2021 WEB-DL 1080p] [Ukr DUB] killermax2013 Скачать
1 | 0
Фильмы 2021 [DVDrip, WEB-DLRip, HDrip] (DUB, MVO) [ 1.41 GB ] Веном 2 / Venom: Let There Be Carnage [2021 WEB-DLRip-AVC] Dub [КиноПоиск HD] sokol_ok Скачать
67 | 9
Фильмы 2021 [DVDrip, WEB-DLRip, HDrip] (DUB, MVO) [ 1.46 GB ] Веном 2 / Venom: Let There Be Carnage [2021 WEB-DLRip] - [ / Кинопоиск HD] Twi7ter Скачать
51 | 0
Ultra HD (UHD: 2K, 4K, 8K) — видео сверхвысокой чёткости [ 11.09 GB ] Веном 2 / Venom: Let There Be Carnage [2021 UHD WEB-DL-HEVC 2160p] DUB [Кинопоиск HD ] bober100 Скачать
32 | 1
Фильмы (WEB-DL 720p, 1080p) [ 5.58 GB ] Веном 2 / Venom: Let There Be Carnage [2021 WEB-DL 1080p] DUB [Кинопоиск HD ] +MVO [Jaskier] bober100 Скачать
34 | 0
Фильмы 2021 [DVDrip, WEB-DLRip, HDrip] (DUB, MVO) [ 1.46 GB ] Веном 2 / Venom: Let There Be Carnage [2021 WEB-DLRip] DUB [Кинопоиск HD ] bober100 Скачать
3 | 0
Фильмы 2021 [DVDrip, WEB-DLRip, HDrip] (DUB, MVO) [ 1.83 GB ] Веном 2 / Venom: Let There Be Carnage [2021 WEB-DLRip-AVC] от ExKinoRay Lithuania Скачать
16 | 0

28-11-2019 20:33  

Отключить всю рекламу на сайте

    Дорогой пользователь! Огромная просьба, поблагодарите релизера, оцените раздачу и оставьте свои комментарий, если Вы скачали Веном 2 через торрент бесплатно!
    Комментировать посты могут только пользователи прошедшие не сложную регистрацию
    Показать сообщения:    

    Веном 2 через торрент
    Скачать бесплатно Веном 2
    Веном 2 скачать торрент
    Веном 2 смотреть онлайн
    Cкачать фильм Веном 2 бесплатно
    Веном 2 скачать торрент в хорошем качестве
    Веном 2 смотреть онлайн бесплатно в хорошем качестве


    Вы не можете начинать темы
    Вы не можете отвечать на сообщения
    Вы не можете редактировать свои сообщения
    Вы не можете удалять свои сообщения
    Вы не можете голосовать в опросах
    Вы не можете прикреплять файлы к сообщениям
    Вы можете скачивать файлы