Присоединяйтесь к нам в Telegram!, здесь всегда актуальный адрес сайта, оперативная поддержка и многое другое!!

>

5.9

iTunes

7.4

iTunes

9.4

1 сезон

1

7.4

2 сезон

7.2

iTunes

7.3

1 сезон

13

6.1

iTunes

8.3

GOG

30

ULTIMATE

pack

9.9

Лицензия

ВАЖНО

ИГРА 18+

pack

7.3

RePack

MK11

7.7

RePack

jed

7.8

RePack

fifa19

8.5

RePack

RDR2

RePack

NEED FOR SPEED™ PAYBACK

5 сезон

9 сезон

Бесстыжие 9 сезон

Все сериалы

все сериалы на PB.wtf

RePack

FAR CRY 5

Anonymous, доброй ночи, мы катастрофически не успеваем собрать деньги на оплату серверов, помогите нам пожалуйста 5,10,15р., для нас важна любая помощь . В качестве благодарности мы отключим Вам всю рекламу на сайте (укажите свой ник в строку Ваше имя)!

×
  
Magnet ссылка

Короче говоря / Long Story Short (Джош Лоусон) [2021, Мелодрама, комедия, BDRip 720p] MVO [KION] pb.wtf

Короче говоря через торрент pb.wtf

Раздают: 2 [ 0 KB/s ]
Размер: 4.33 GB | Добавлен: 7 д. назад | Торрент скачан:49 раз
Смотреть онлайн Короче говоря | Скачать    Ребята, помогите собрать деньги на оплату серверов!!!

24-11-2021 06:11 Короче говоря Скачать торрент  

Короче говоря | Long Story Short
Год выпуска: 2021
Страна: Австралия
Студия: Create NSW, Screen Australia, See Pictures, Spectrum Films, Studio Canal
Жанр: Мелодрама, комедия
Продолжительность: 01:34:28
Перевод: Профессиональный (многоголосый) | KION
Субтитры: Русские (Full), английские

Режиссер: Джош Лоусон

rating

В ролях: Рейф Сполл, Джош Лоусон, Ронни Чиэн, Нони Хейзлхерст, Дена Каплан, Зара Ньюман, Бенжамин Тейлор

Описание: Тедди — классический прокрастинатор, всегда опаздывает, находит массу причин не выполнять свои обязанности и просто не ценит свое и чужое время. Однажды он просыпается после свадьбы и обнаруживает, что через каждые сутки он перескакивает на целый год своей жизни. Теперь ему придется не только побороться за любовь, но и научиться по-настоящему ценить каждое мгновение жизни.

Качество: BDRip 720p
Формат: MKV

Видео: MPEG-4 AVC, 1280x536, 5276 Кbit/s, 24.000 fps
Аудио #01: 48 kHz, AC3, 5.1, 640 Kbps | Профессиональный многоголосый | KION | RUS |
Аудио #02: 48 kHz, AC3, 5.1, 640 Kbps | Оригинал | ENG |
скриншот  скриншот  скриншот  скриншот  скриншот  

General
Unique ID : 235734825749244629339061342306570228 (0x2D669FCEFB5766E1CAADDA3F740FF4)
Complete name : E:VideoLong.Story.Short.2021.BDRip.720p.seleZen.mkv
Format : Matroska
Format version : Version 4
File size : 4.33 GiB
Duration : 1 h 34 min
Overall bit rate : 6 556 kb/s
Movie name : Long Story Short 2021 from seleZen
Encoded date : UTC 2021-11-24 05:31:07
Writing application : mkvmerge v59.0.0 ('Shining Star') 64-bit
Writing library : libebml v1.4.2 + libmatroska v1.6.4

Video
ID : 1
Format : AVC
Format/Info : Advanced Video Codec
Format profile : High@L4.1
Format settings : CABAC / 12 Ref Frames
Format settings, CABAC : Yes
Format settings, Reference frames : 12 frames
Codec ID : V_MPEG4/ISO/AVC
Duration : 1 h 34 min
Bit rate : 5 276 kb/s
Width : 1 280 pixels
Height : 536 pixels
Display aspect ratio : 2.40:1
Frame rate mode : Constant
Frame rate : 24.000 FPS
Color space : YUV
Chroma subsampling : 4:2:0
Bit depth : 8 bits
Scan type : Progressive
Bits/(Pixel*Frame) : 0.320
Stream size : 3.48 GiB (80%)
Writing library : x264 core 146 -from seleZen
Encoding settings : cabac=1 / ref=12 / deblock=1:-3:-3 / analyse=0x3:0x133 / me=umh / subme=11 / psy=1 / psy_rd=1.03:0.04 / mixed_ref=1 / me_range=32 / chroma_me=1 / trellis=2 / 8x8dct=1 / cqm=0 / deadzone=21,11 / fast_pskip=0 / chroma_qp_offset=-3 / threads=36 / lookahead_threads=4 / sliced_threads=0 / nr=0 / decimate=0 / interlaced=0 / bluray_compat=0 / constrained_intra=0 / bframes=9 / b_pyramid=2 / b_adapt=2 / b_bias=0 / direct=3 / weightb=1 / open_gop=0 / weightp=2 / keyint=240 / keyint_min=23 / scenecut=40 / intra_refresh=0 / rc_lookahead=50 / rc=2pass / mbtree=0 / bitrate=5276 / ratetol=1.0 / qcomp=0.60 / qpmin=0 / qpmax=51 / qpstep=4 / cplxblur=20.0 / qblur=0.5 / vbv_maxrate=50000 / vbv_bufsize=62500 / nal_hrd=none / filler=0 / ip_ratio=1.40 / pb_ratio=1.30 / aq=3:0.80
Language : English
Default : Yes
Forced : No

Audio #1
ID : 2
Format : AC-3
Format/Info : Audio Coding 3
Commercial name : Dolby Digital
Codec ID : A_AC3
Duration : 1 h 34 min
Bit rate mode : Constant
Bit rate : 640 kb/s
Channel(s) : 6 channels
Channel layout : L R C LFE Ls Rs
Sampling rate : 48.0 kHz
Frame rate : 31.250 FPS (1536 SPF)
Compression mode : Lossy
Stream size : 431 MiB (10%)
Title : MVO [KION]
Language : Russian
Service kind : Complete Main
Default : Yes
Forced : Yes

Audio #2
ID : 3
Format : AC-3
Format/Info : Audio Coding 3
Commercial name : Dolby Digital
Codec ID : A_AC3
Duration : 1 h 34 min
Bit rate mode : Constant
Bit rate : 640 kb/s
Channel(s) : 6 channels
Channel layout : L R C LFE Ls Rs
Sampling rate : 48.0 kHz
Frame rate : 31.250 FPS (1536 SPF)
Compression mode : Lossy
Stream size : 432 MiB (10%)
Title : Original
Language : English
Service kind : Complete Main
Default : No
Forced : No

Text #1
ID : 4
Format : UTF-8
Codec ID : S_TEXT/UTF8
Codec ID/Info : UTF-8 Plain Text
Duration : 1 h 29 min
Bit rate : 135 b/s
Count of elements : 1828
Stream size : 88.9 KiB (0%)
Title : Full
Language : Russian
Default : No
Forced : No

Text #2
ID : 5
Format : UTF-8
Codec ID : S_TEXT/UTF8
Codec ID/Info : UTF-8 Plain Text
Duration : 1 h 29 min
Bit rate : 114 b/s
Count of elements : 2099
Stream size : 75.1 KiB (0%)
Title : Full
Language : English
Default : No
Forced : No

Menu
00:00:00.000 : Глава 01
00:13:27.000 : Глава 02
00:26:37.083 : Глава 03
00:36:19.958 : Глава 04
00:48:08.500 : Глава 05
00:57:16.083 : Глава 06
01:11:19.833 : Глава 07
01:18:51.583 : Глава 08
01:30:51.958 : Глава 09

pb.wtf



Скачать Короче говоря через торрент https://a.radikal.ru/a14/2106/0f/ae66c15509d6.jpg Скачать, смотреть онлайн Короче говоря бесплантно в хорошем качестве Описание: Тедди — классический прокрастинатор, всегда опаздывает, находит массу причин не выполнять свои обязанности и просто не ценит свое ... 10 10 4
Торрент: Зарегистрирован [2021-11-24 06:11] · скачан: 49 раз
Статус: √ проверено
Размер: 4.33 GB
Как cкачать? Как скачать Короче говоря через торрент | UTorrent

% Раздел Тема Автор DL S | L
Фильмы 2021 [DVDrip, WEB-DLRip, HDrip] (DUB, MVO) [ 1.46 GB ] Короче говоря / Long Story Short [2021 Мело BDRip] MVO [KION] Twi7ter Скачать
35 | 1
Фильмы 2021 [DVDrip, WEB-DLRip, HDrip] (DUB, MVO) [ 746 MB ] Короче говоря / Long Story Short [2021 Мело BDRip] MVO [KION] bober100 Скачать
2 | 0
Фильмы 2021 [DVDrip, WEB-DLRip, HDrip] (DUB, MVO) [ 1.45 GB ] Короче говоря / Long Story Short [2021 Мело BDRip-AVC] MVO [KION] bober100 Скачать
1 | 0
Фильмы [HD 720p, 1080p] (Хороший звук DUB, MVO) [ 8.1 GB ] Короче говоря / Long Story Short [2021 Мело BDRip 1080p] MVO [KION] bober100 Скачать
6 | 0
Фильмы (Blu-ray, BD-Remux, HDDVD) [ 24.22 GB ] Короче говоря / Long Story Short [2021 Мело BD Remux 1080p] MVO [KION] bober100 Скачать
5 | 0
Фильмы (WEB-DL 720p, 1080p) [ 3.46 GB ] Короче говоря / Long Story Short [2021 Мело WEB-DL 1080p] MVO bober100 Скачать
6 | 0
Фильмы 2021 [DVDrip, WEB-DLRip, HDrip] (DUB, MVO) [ 2.05 GB ] Короче говоря / Long Story Short [2021 Мело WEB-DLRip-AVC] MVO от MediaBit Lithuania Скачать
3 | 0

28-11-2019 20:33  

Отключить всю рекламу на сайте

    Дорогой пользователь! Огромная просьба, поблагодарите релизера, оцените раздачу и оставьте свои комментарий, если Вы скачали Короче говоря через торрент бесплатно!
    Комментировать посты могут только пользователи прошедшие не сложную регистрацию
    Показать сообщения:    

    Короче говоря через торрент
    Скачать бесплатно Короче говоря
    Короче говоря скачать торрент
    Короче говоря смотреть онлайн
    Cкачать фильм Короче говоря бесплатно
    Короче говоря скачать торрент в хорошем качестве
    Короче говоря смотреть онлайн бесплатно в хорошем качестве


    Вы не можете начинать темы
    Вы не можете отвечать на сообщения
    Вы не можете редактировать свои сообщения
    Вы не можете удалять свои сообщения
    Вы не можете голосовать в опросах
    Вы не можете прикреплять файлы к сообщениям
    Вы можете скачивать файлы