Присоединяйтесь к нам в Telegram!, здесь всегда актуальный адрес сайта, оперативная поддержка и многое другое!!

>

5.9

iTunes

7.4

iTunes

9.4

1 сезон

1

7.4

2 сезон

7.2

iTunes

7.3

1 сезон

13

6.1

iTunes

8.3

GOG

30

ULTIMATE

pack

9.9

Лицензия

ВАЖНО

ИГРА 18+

pack

7.3

RePack

MK11

7.7

RePack

jed

7.8

RePack

fifa19

8.5

RePack

RDR2

RePack

NEED FOR SPEED™ PAYBACK

5 сезон

9 сезон

Бесстыжие 9 сезон

Все сериалы

все сериалы на PB.wtf

RePack

FAR CRY 5

Anonymous, добрый день, мы катастрофически не успеваем собрать деньги на оплату серверов, помогите нам пожалуйста 5,10,15р., для нас важна любая помощь . В качестве благодарности мы отключим Вам всю рекламу на сайте (укажите свой ник в строку Ваше имя)!

×
  
Magnet ссылка

Удары / Bruised (Холли Берри) [2020, Драма, спорт, WEB-DLRip-AVC] DUB [Невафильм / Netflix] pb.wtf

Удары через торрент pb.wtf

Раздают: 6 [ 0.2 KB/s ]
Размер: 2.18 GB | Добавлен: 7 д. назад | Торрент скачан:34 раза
Смотреть онлайн Удары | Скачать    Ребята, помогите собрать деньги на оплату серверов!!!

24-11-2021 13:02 Удары Скачать торрент  

Удары | Bruised
Год выпуска: 2020
Страна: США, Великобритания
Выпущено: Aloe Entertainment, Bohemia Media, Film 360
Жанр: Драма, спорт
Продолжительность: 02:12:38
Перевод: Дублированный | Невафильм по заказу Netflix
Субтитры: Русские (Forced, full), украинские (Full), английские

Режиссер: Холли Берри

rating

В ролях: Холли Берри, Стивен Хендерсон, Адан Канто, Шамир Андерсон, Марселла Ленц-Поуп, Николай Николаефф, Денни Диллон, Шила Атим, Ро Лейба, Кевин Д. Бентон, Мелани Уолдмэн, Марк Хайнс, Бетани Элайн, Мишель Кармин

Описание: Выбирая между ребёнком и рингом, Джеки отдала предпочтение спортивной карьере. Но несколько лет спустя, когда она уже ушла из спорта и работает уборщицей, прошлое внезапно настигает её — отец мальчика умер, и теперь Джеки придётся заботится о шестилетнем сыне. Женщина вынужденно возвращается на ринг, чтобы заработать на будущее себе и ребёнку.

Качество: WEB-DLRip-AVC
Формат: AVI

Видео: MPEG-4 AVC, 1024x428 at 23.976 fps, x264@L4.1, ~1908 kbps
Аудио: AC3, 48 kHz, 6 ch, ~448.00 kbps avg | русский | Пифагор
скриншот  скриншот  скриншот  скриншот  скриншот  

x264 [info]: frame I:1234 Avg QP:14.96 size: 55342
x264 [info]: frame P:41058 Avg QP:18.76 size: 20396
x264 [info]: frame B:148497 Avg QP:20.54 size: 6668

General
Unique ID : 184066090541686824871174912801350904968 (0x8A79D6ECE2218FB6E039F2516D6C6C88)
Complete name : E:Bruised.2021.NF.DUB.WEB-DLRip-AVC.mkv
Format : Matroska
Format version : Version 4
File size : 2.18 GiB
Duration : 2 h 12 min
Overall bit rate : 2 356 kb/s
Encoded date : UTC 2021-11-24 11:38:04
Writing application : mkvmerge v63.0.0 ('Everything') 64-bit
Writing library : libebml v1.4.2 + libmatroska v1.6.4
Cover : Yes
Attachments : cover.jpg / cover 2.jpg

Video
ID : 1
Format : AVC
Format/Info : Advanced Video Codec
Format profile : High@L4.1
Format settings : CABAC / 12 Ref Frames
Format settings, CABAC : Yes
Format settings, Reference : 12 frames
Codec ID : V_MPEG4/ISO/AVC
Duration : 2 h 12 min
Bit rate : 1 908 kb/s
Width : 1 024 pixels
Height : 428 pixels
Display aspect ratio : 2.40:1
Frame rate mode : Constant
Frame rate : 23.976 (24000/1001) FPS
Color space : YUV
Chroma subsampling : 4:2:0
Bit depth : 8 bits
Scan type : Progressive
Bits/(Pixel*Frame) : 0.182
Stream size : 1.77 GiB (81%)
Title : -=DoMiNo=-
Writing library : x264 core 164 r3075+55M 97d28bb t_mod_New [(8 & 10)-bit@all X86_64]
Encoding settings : cabac=1 / ref=12 / deblock=1:-2:-2 / analyse=0x3:0x133 / me=umh / subme=10 / psy=1 / fade_compensate=0.00 / psy_rd=1.05:0.15 / mixed_ref=1 / me_range=32 / chroma_me=1 / trellis=2 / 8x8dct=1 / cqm=0 / deadzone=21,11 / fast_pskip=0 / chroma_qp_offset=-3 / threads=13 / lookahead_threads=3 / sliced_threads=0 / nr=0 / decimate=0 / interlaced=0 / bluray_compat=0 / constrained_intra=0 / fgo=0 / bframes=12 / b_pyramid=2 / b_adapt=2 / b_bias=0 / direct=3 / weightb=1 / open_gop=0 / weightp=2 / keyint=250 / keyint_min=23 / scenecut=40 / intra_refresh=0 / rc_lookahead=60 / rc=2pass / mbtree=0 / bitrate=1908 / ratetol=1.0 / qcomp=0.65 / qpmin=0:0:0 / qpmax=69:69:69 / qpstep=4 / cplxblur=20.0 / qblur=0.5 / vbv_maxrate=50000 / vbv_bufsize=62500 / nal_hrd=none / filler=0 / ip_ratio=1.40 / pb_ratio=1.30 / aq=3:0.80 / aq-sensitivity=10.00 / aq-factor=1.00:1.00:1.00 / aq2=0 / aq3=0
Language : English
Default : Yes
Forced : No

Audio
ID : 2
Format : AC-3
Format/Info : Audio Coding 3
Commercial name : Dolby Digital
Codec ID : A_AC3
Duration : 2 h 12 min
Bit rate mode : Constant
Bit rate : 448 kb/s
Channel(s) : 6 channels
Channel layout : L R C LFE Ls Rs
Sampling rate : 48.0 kHz
Frame rate : 31.250 FPS (1536 SPF)
Compression mode : Lossy
Stream size : 425 MiB (19%)
Title : DUB
Language : Russian
Service kind : Complete Main
Default : Yes
Forced : Yes

Text #1
ID : 3
Format : UTF-8
Codec ID : S_TEXT/UTF8
Codec ID/Info : UTF-8 Plain Text
Duration : 1 h 48 min
Bit rate : 1 b/s
Count of elements : 33
Stream size : 1.07 KiB (0%)
Title : Forced
Language : Russian
Default : Yes
Forced : Yes

Text #2
ID : 4
Format : UTF-8
Codec ID : S_TEXT/UTF8
Codec ID/Info : UTF-8 Plain Text
Duration : 2 h 10 min
Bit rate : 60 b/s
Count of elements : 1232
Stream size : 57.5 KiB (0%)
Title : Russian
Language : Russian
Default : No
Forced : No

Text #3
ID : 5
Format : UTF-8
Codec ID : S_TEXT/UTF8
Codec ID/Info : UTF-8 Plain Text
Duration : 2 h 10 min
Bit rate : 63 b/s
Count of elements : 1258
Stream size : 60.5 KiB (0%)
Title : Ukrainian
Language : Ukrainian
Default : No
Forced : No

Text #4
ID : 6
Format : UTF-8
Codec ID : S_TEXT/UTF8
Codec ID/Info : UTF-8 Plain Text
Duration : 2 h 4 min
Bit rate : 64 b/s
Count of elements : 1742
Stream size : 58.6 KiB (0%)
Title : English [SDH]
Language : English
Default : No
Forced : No

pb.wtf



Скачать Удары через торрент https://i116.fastpic.org/big/2021/1124/7d/fdbf24116cb9ed79ca6a7346710fd67d.jpg Скачать, смотреть онлайн Удары бесплантно в хорошем качестве Описание: Выбирая между ребёнком и рингом, Джеки отдала предпочтение спортивной карьере. Но несколько лет спустя, когда она уже ушла из ... 10 10 4
Торрент: Зарегистрирован [2021-11-24 13:02] · скачан: 34 раз
Статус: √ проверено
Размер: 2.18 GB
Как cкачать? Как скачать Удары через торрент | UTorrent

% Раздел Тема Автор DL S | L
Фильмы 2021 [DVDrip, WEB-DLRip, HDrip] (DUB, MVO) [ 1.46 GB ] Удары / Bruised [2020 WEB-DLRip] DUB [Невафильм / Netflix] bober100 Скачать
2 | 0
T Фильмы 2019-2020 (Звук TS, Cam, VO, DVO) [ 1.96 GB ] Удары / Bruised [2020 WEB-DLRip-AVC] DVO [Pazl Voice] от ExKinoRay Lithuania Скачать
3 | 0
Фильмы 2019-2020 [DVDrip, WEB-DLRip, HDrip] (DUB, MVO) [ 2.18 GB ] Удары / Bruised [2020 WEB-DLRip] - [ / Netflix] Twi7ter Скачать
17 | 0
Фильмы 2019-2020 [DVDrip, WEB-DLRip, HDrip] (DUB, MVO) [ 1.46 GB ] Удары / Bruised [2020 WEB-DLRip] - [ / Netflix] Twi7ter Скачать
15 | 0
Фильмы 2021 [DVDrip, WEB-DLRip, HDrip] (DUB, MVO) [ 2.19 GB ] Удары / Bruised [2020 WEB-DLRip] DUB [Невафильм / Netflix] bober100 Скачать
1 | 0
Фильмы (WEB-DL 720p, 1080p) [ 5.2 GB ] Удары / Bruised [2020 WEB-DL 1080p] DUB [Невафильм / Netflix] bober100 Скачать
11 | 0

28-11-2019 20:33  

Отключить всю рекламу на сайте

    Дорогой пользователь! Огромная просьба, поблагодарите релизера, оцените раздачу и оставьте свои комментарий, если Вы скачали Удары через торрент бесплатно!
    Комментировать посты могут только пользователи прошедшие не сложную регистрацию
    Показать сообщения:    

    Удары через торрент
    Скачать бесплатно Удары
    Удары скачать торрент
    Удары смотреть онлайн
    Cкачать фильм Удары бесплатно
    Удары скачать торрент в хорошем качестве
    Удары смотреть онлайн бесплатно в хорошем качестве


    Вы не можете начинать темы
    Вы не можете отвечать на сообщения
    Вы не можете редактировать свои сообщения
    Вы не можете удалять свои сообщения
    Вы не можете голосовать в опросах
    Вы не можете прикреплять файлы к сообщениям
    Вы можете скачивать файлы