Присоединяйтесь к нам в Telegram!, здесь всегда актуальный адрес сайта, оперативная поддержка и многое другое!!

>

5.9

iTunes

7.4

iTunes

9.4

1 сезон

1

7.4

2 сезон

7.2

iTunes

7.3

1 сезон

13

6.1

iTunes

8.3

GOG

30

ULTIMATE

pack

9.9

Лицензия

ВАЖНО

ИГРА 18+

pack

7.3

RePack

MK11

7.7

RePack

jed

7.8

RePack

fifa19

8.5

RePack

RDR2

RePack

NEED FOR SPEED™ PAYBACK

5 сезон

9 сезон

Бесстыжие 9 сезон

Все сериалы

все сериалы на PB.wtf

RePack

FAR CRY 5

Anonymous, доброй ночи, мы катастрофически не успеваем собрать деньги на оплату серверов, помогите нам пожалуйста 5,10,15р., для нас важна любая помощь . В качестве благодарности мы отключим Вам всю рекламу на сайте (укажите свой ник в строку Ваше имя)!

×
  
Magnet ссылка

Мальчик по имени Рождество / A Boy Called Christmas (Гил Кинан) [2021, Фэнтези, драма, приключения, семейный, WEB-DLRip-AVC] DUB [Пифагор / Netflix] pb.wtf

Мальчик по имени Рождество через торрент pb.wtf

Раздают: 4 [ 14 KB/s ]
Размер: 1.9 GB | Добавлен: 2 д. 14 ч. назад | Торрент скачан:40 раз
Смотреть онлайн Мальчик по имени Рождество | Скачать    Ребята, помогите собрать деньги на оплату серверов!!!

24-11-2021 14:30 Мальчик по имени Рождество Скачать торрент  

Мальчик по имени Рождество | A Boy Called Christmas
Год выпуска: 2021
Страна: Великобритания, Франция
Выпущено: Blueprint Pictures, Canal+ [fr], Ciné, Netflix, Studio Canal
Жанр: Фэнтези, драма, приключения, семейный
Продолжительность: 01:45:22
Перевод: Дублированный | Пифагор по заказу Netflix
Субтитры: Русские (Forced, full), украинские (Full), английские

Режиссер: Гил Кинан

rating

В ролях: Кристен Уиг, Микил Хаусмен, Мэгги Смит, Зои Маргарет Коллетти, Салли Хокинс, Джим Бродбент, Тоби Джонс, Рюн Темт, Индика Уотсон, Синед Фелпс, Абиола Огунбийи

Описание: «Мальчик по имени Рождество» — это история о приключениях юного Николаса, которому суждено стать символом главного христианского праздника. Прежде чем получить известность под именем Санта-Клауса, Николас был самым обычным мальчиком, который рос в бедной семье. Однажды его отец пропал, и герой отправился на Северный полюс, чтобы спасти его. Так он открыл для себя волшебный мир и вернул деревне эльфов дух Рождества.

Качество: WEB-DLRip-AVC
Формат: MKV

Видео: 1024x428 at 24.000 fps, x264@L4.1, ~2100 kbps
Аудио: AC3, 48 kHz, 6 ch, ~448.00 kbps avg | русский | Пифагор
скриншот  скриншот  скриншот  скриншот  скриншот  

x264 [info]: frame I:1362 Avg QP:14.28 size: 78591
x264 [info]: frame P:40250 Avg QP:17.30 size: 22625
x264 [info]: frame B:112112 Avg QP:19.06 size: 5914

General
Unique ID : 170947120470155666086702142893880373574 (0x809B37C32F279485EB36687BBE25F146)
Complete name : I:A.Boy.Called.Christmas.2021.NF.DUB.WEB-DLRip-AVC.mkv
Format : Matroska
Format version : Version 4
File size : 1.90 GiB
Duration : 1 h 46 min
Overall bit rate : 2 550 kb/s
Encoded date : UTC 2021-11-24 12:56:33
Writing application : mkvmerge v63.0.0 ('Everything') 64-bit
Writing library : libebml v1.4.2 + libmatroska v1.6.4
Cover : Yes
Attachments : cover.jpg / cover 2.jpg

Video
ID : 1
Format : AVC
Format/Info : Advanced Video Codec
Format profile : High@L4.1
Format settings : CABAC / 12 Ref Frames
Format settings, CABAC : Yes
Format settings, Reference : 12 frames
Codec ID : V_MPEG4/ISO/AVC
Duration : 1 h 46 min
Bit rate : 2 100 kb/s
Width : 1 024 pixels
Height : 428 pixels
Display aspect ratio : 2.40:1
Frame rate mode : Constant
Frame rate : 24.000 FPS
Color space : YUV
Chroma subsampling : 4:2:0
Bit depth : 8 bits
Scan type : Progressive
Bits/(Pixel*Frame) : 0.200
Stream size : 1.57 GiB (82%)
Title : -=DoMiNo=-
Writing library : x264 core 164 r3075+55M 97d28bb t_mod_New [(8 & 10)-bit@all X86_64]
Encoding settings : cabac=1 / ref=12 / deblock=1:-2:-2 / analyse=0x3:0x133 / me=umh / subme=10 / psy=1 / fade_compensate=0.00 / psy_rd=1.05:0.15 / mixed_ref=1 / me_range=32 / chroma_me=1 / trellis=2 / 8x8dct=1 / cqm=0 / deadzone=21,11 / fast_pskip=0 / chroma_qp_offset=-3 / threads=13 / lookahead_threads=3 / sliced_threads=0 / nr=0 / decimate=0 / interlaced=0 / bluray_compat=0 / constrained_intra=0 / fgo=0 / bframes=10 / b_pyramid=2 / b_adapt=2 / b_bias=0 / direct=3 / weightb=1 / open_gop=0 / weightp=2 / keyint=250 / keyint_min=23 / scenecut=40 / intra_refresh=0 / rc_lookahead=60 / rc=2pass / mbtree=0 / bitrate=2100 / ratetol=1.0 / qcomp=0.65 / qpmin=0:0:0 / qpmax=69:69:69 / qpstep=4 / cplxblur=20.0 / qblur=0.5 / vbv_maxrate=50000 / vbv_bufsize=62500 / nal_hrd=none / filler=0 / ip_ratio=1.40 / pb_ratio=1.30 / aq=3:0.80 / aq-sensitivity=10.00 / aq-factor=1.00:1.00:1.00 / aq2=0 / aq3=0
Language : English
Default : Yes
Forced : No

Audio
ID : 2
Format : AC-3
Format/Info : Audio Coding 3
Commercial name : Dolby Digital
Codec ID : A_AC3
Duration : 1 h 46 min
Bit rate mode : Constant
Bit rate : 448 kb/s
Channel(s) : 6 channels
Channel layout : L R C LFE Ls Rs
Sampling rate : 48.0 kHz
Frame rate : 31.250 FPS (1536 SPF)
Compression mode : Lossy
Stream size : 342 MiB (18%)
Title : DUB
Language : Russian
Service kind : Complete Main
Default : Yes
Forced : Yes

Text #1
ID : 3
Format : UTF-8
Codec ID : S_TEXT/UTF8
Codec ID/Info : UTF-8 Plain Text
Duration : 1 h 42 min
Bit rate : 0 b/s
Count of elements : 6
Stream size : 309 Bytes (0%)
Title : Forced
Language : Russian
Default : Yes
Forced : Yes

Text #2
ID : 4
Format : UTF-8
Codec ID : S_TEXT/UTF8
Codec ID/Info : UTF-8 Plain Text
Duration : 1 h 41 min
Bit rate : 67 b/s
Count of elements : 1638
Stream size : 50.3 KiB (0%)
Title : English (SDH)
Language : English
Default : No
Forced : No

Text #3
ID : 5
Format : UTF-8
Codec ID : S_TEXT/UTF8
Codec ID/Info : UTF-8 Plain Text
Duration : 1 h 42 min
Bit rate : 78 b/s
Count of elements : 1212
Stream size : 59.1 KiB (0%)
Title : Full
Language : Russian
Default : No
Forced : No

Text #4
ID : 6
Format : UTF-8
Codec ID : S_TEXT/UTF8
Codec ID/Info : UTF-8 Plain Text
Duration : 1 h 42 min
Bit rate : 78 b/s
Count of elements : 1178
Stream size : 59.3 KiB (0%)
Title : Ukrainian
Language : Ukrainian
Default : No
Forced : No

pb.wtf



Скачать Мальчик по имени Рождество через торрент https://i116.fastpic.org/big/2021/1124/c9/0a1cb174a8e66d3131616ba0805bbdc9.jpg Скачать, смотреть онлайн Мальчик по имени Рождество бесплантно в хорошем качестве Описание: «Мальчик по имени Рождество» — это история о приключениях юного Николаса, которому суждено стать символом главного христианского ... 10 10 5
Торрент: Зарегистрирован [2021-11-24 14:30] · скачан: 40 раз
Статус: √ проверено
Размер: 1.9 GB
Как cкачать? Как скачать Мальчик по имени Рождество через торрент | UTorrent

% Раздел Тема Автор DL S | L
Фильмы 2021 [DVDrip, WEB-DLRip, HDrip] (DUB, MVO) [ 2.01 GB ] Мальчик по имени Рождество / A Boy Called Christmas [2021 WEB-DLRip-AVC] DUB [Netflix] от ExKinoRay Lithuania Скачать
3 | 0
Фильмы 2021 [DVDrip, WEB-DLRip, HDrip] (DUB, MVO) [ 1.46 GB ] Мальчик по имени Рождество / A Boy Called Christmas [2021 WEB-DLRip] - [ / Netflix] Twi7ter Скачать
29 | 2
Фильмы 2021 [DVDrip, WEB-DLRip, HDrip] (DUB, MVO) [ 1.46 GB ] Мальчик по имени Рождество / A Boy Called Christmas [2021 WEB-DLRip] DUB [Пифагор / Netflix] bober100 Скачать
4 | 0
Фильмы (WEB-DL 720p, 1080p) [ 4.35 GB ] Мальчик по имени Рождество / A Boy Called Christmas [2021 WEB-DL 1080p] DUB [Пифагор / Netflix] bober100 Скачать
16 | 0

28-11-2019 20:33  

Отключить всю рекламу на сайте

    Дорогой пользователь! Огромная просьба, поблагодарите релизера, оцените раздачу и оставьте свои комментарий, если Вы скачали Мальчик по имени Рождество через торрент бесплатно!
    Комментировать посты могут только пользователи прошедшие не сложную регистрацию
    Показать сообщения:    

    Мальчик по имени Рождество через торрент
    Скачать бесплатно Мальчик по имени Рождество
    Мальчик по имени Рождество скачать торрент
    Мальчик по имени Рождество смотреть онлайн
    Cкачать фильм Мальчик по имени Рождество бесплатно
    Мальчик по имени Рождество скачать торрент в хорошем качестве
    Мальчик по имени Рождество смотреть онлайн бесплатно в хорошем качестве


    Вы не можете начинать темы
    Вы не можете отвечать на сообщения
    Вы не можете редактировать свои сообщения
    Вы не можете удалять свои сообщения
    Вы не можете голосовать в опросах
    Вы не можете прикреплять файлы к сообщениям
    Вы можете скачивать файлы