Присоединяйтесь к нам в Telegram!, здесь всегда актуальный адрес сайта, оперативная поддержка и многое другое!!

>

5.9

iTunes

7.4

iTunes

9.4

1 сезон

1

7.4

2 сезон

7.2

iTunes

7.3

1 сезон

13

6.1

iTunes

8.3

GOG

30

ULTIMATE

pack

9.9

Лицензия

ВАЖНО

ИГРА 18+

pack

7.3

RePack

MK11

7.7

RePack

jed

7.8

RePack

fifa19

8.5

RePack

RDR2

RePack

NEED FOR SPEED™ PAYBACK

5 сезон

9 сезон

Бесстыжие 9 сезон

Все сериалы

все сериалы на PB.wtf

RePack

FAR CRY 5

Anonymous, доброй ночи, мы катастрофически не успеваем собрать деньги на оплату серверов, помогите нам пожалуйста 5,10,15р., для нас важна любая помощь . В качестве благодарности мы отключим Вам всю рекламу на сайте (укажите свой ник в строку Ваше имя)!

×
  
Magnet ссылка

Порочные Желания / La Bourgeoise / Decadent Desires (Hervé Bodilis) [2013 г., Feature, Foreign, Threesomes & More, Anal, DVD9] pb.wtf

Порочные Желания через торрент pb.wtf

Раздают: 7 [ 0 KB/s ]
Размер: 6.95 GB | Добавлен: 6 д. назад | Торрент скачан:74 раза
Смотреть онлайн Порочные Желания | Скачать    Ребята, помогите собрать деньги на оплату серверов!!!

25-11-2021 04:30 Порочные Желания Скачать торрент  

Порочные Желания / La Bourgeoise / Decadent Desires
Год выпуска: 2013
Страна: Франция
Жанр: Feature, Foreign, Threesomes & More, Anal
Продолжительность: 01:50:26
Субтитры: Romanian, Hrvatski, Portugues

Режиссер: Hervé Bodilis

В ролях: Tarra White, Mike Angelo, J.P.X., Cindy Dollar, Anna Polina, Ariel, Martin Gun, Bianca, Eufrat Mai, Frank Mayor, Silvie Deluxe, Nasta Zya, Angelica Kitten, Clanddi Jinkcego, Jessyca Wilson

Описание: The wealthy and perverted Clanddi, owner of the luxurious manor, takes care of training her charming maids. She doesn't hesitate to put everything she has into teaching the pleasures of the flesh to these hussy trainees. Clanddi wants to try out her submissive employees and put their skills to the test herself. After she has brought them a super hung stud, Clanddi realizes with great pleasure that Cindy, Nasta Zya and Anna are real experts in fellatio and sodomy.
After a taxing day of work, Tarra falls is really tired. She dreams that three men are pursuing her in the rain and are forcing her to suck their huge dicks. It's futile trying to resist the pleasure, and Tarra ends up by giving herself to them completely. She wakes up and finds her pussy dripping wet with bliss!
Качество: DVD9
Формат: DVD Video
Видео: 720x480, MPEG 2, 5300 Кбит/сек
Аудио#1: Французский, AC3, 2 ch, 192 Кбит/сек
Аудио#2: Английский, AC3, 2 ch, 192 Кбит/сек
Аудио#3: Немецкий, AC3, 2 ch, 192 Кбит/сек
Аудио#4: Испанский, AC3, 2 ch, 192 Кбит/сек
Аудио#5: Итальянский, AC3, 2 ch, 192 Кбит/сек
Видео
Идентификатор : 224 (0xE0)
Формат : MPEG Video
Версия формата : Version 2
Профиль формата : Main@Main
Настройки формата : CustomMatrix / BVOP
Параметр BVOP формата : Да
Параметр матрицы формата : Выборочная
Параметр GOP формата : M=3, N=7
Продолжительность : 22 м. 19 с.
Вид битрейта : Постоянный
Битрейт : 5 300 Кбит/сек
Ширина : 720 пикселей
Высота : 480 пикселей
Соотношение сторон : 16:9
Частота кадров : 29,970 (30000/1001) кадров/сек
Стандарт вещания : NTSC
Цветовое пространство : YUV
Субдискретизация насыщенности : 4:2:0
Битовая глубина : 8 бит
Тип развёртки : Прогрессивная
Метод сжатия : С потерями
Бит/(Пиксели*Кадры) : 0.512
Временной код первого кадра : 08:20:00:00
Оригинал временного кода : Group of pictures header
GOP, открыто/закрыто : Закрыто
Размер потока : 850 Мбайт (83%)
Основные цвета : BT.601 NTSC
Характеристики трансфера : BT.601
Коэффициенты матрицы : BT.601

Аудио #1
Идентификатор : 189 (0xBD)-128 (0x80)
Формат : AC-3
Формат/Информация : Audio Coding 3
Коммерческое название : Dolby Digital
Режим смешивания : DVD-Video
Продолжительность : 22 м. 18 с.
Вид битрейта : Постоянный
Битрейт : 192 Кбит/сек
Каналы : 2 канала
Channel layout : L R
Частота : 48,0 КГц
Частота кадров : 31,250 кадров/сек (1536 SPF)
Метод сжатия : С потерями
Размер потока : 30,6 Мбайт (3%)
Service kind : Complete Main

Аудио #2
Идентификатор : 189 (0xBD)-129 (0x81)
Формат : AC-3
Формат/Информация : Audio Coding 3
Коммерческое название : Dolby Digital
Режим смешивания : DVD-Video
Продолжительность : 22 м. 18 с.
Вид битрейта : Постоянный
Битрейт : 192 Кбит/сек
Каналы : 2 канала
Channel layout : L R
Частота : 48,0 КГц
Частота кадров : 31,250 кадров/сек (1536 SPF)
Метод сжатия : С потерями
Размер потока : 30,6 Мбайт (3%)
Service kind : Complete Main

Аудио #3
Идентификатор : 189 (0xBD)-130 (0x82)
Формат : AC-3
Формат/Информация : Audio Coding 3
Коммерческое название : Dolby Digital
Режим смешивания : DVD-Video
Продолжительность : 22 м. 18 с.
Вид битрейта : Постоянный
Битрейт : 192 Кбит/сек
Каналы : 2 канала
Channel layout : L R
Частота : 48,0 КГц
Частота кадров : 31,250 кадров/сек (1536 SPF)
Метод сжатия : С потерями
Размер потока : 30,6 Мбайт (3%)
Service kind : Complete Main

Аудио #4
Идентификатор : 189 (0xBD)-131 (0x83)
Формат : AC-3
Формат/Информация : Audio Coding 3
Коммерческое название : Dolby Digital
Режим смешивания : DVD-Video
Продолжительность : 22 м. 18 с.
Вид битрейта : Постоянный
Битрейт : 192 Кбит/сек
Каналы : 2 канала
Channel layout : L R
Частота : 48,0 КГц
Частота кадров : 31,250 кадров/сек (1536 SPF)
Метод сжатия : С потерями
Размер потока : 30,6 Мбайт (3%)
Service kind : Complete Main

Аудио #5
Идентификатор : 189 (0xBD)-132 (0x84)
Формат : AC-3
Формат/Информация : Audio Coding 3
Коммерческое название : Dolby Digital
Режим смешивания : DVD-Video
Продолжительность : 22 м. 18 с.
Вид битрейта : Постоянный
Битрейт : 192 Кбит/сек
Каналы : 2 канала
Channel layout : L R
Частота : 48,0 КГц
Частота кадров : 31,250 кадров/сек (1536 SPF)
Метод сжатия : С потерями
Размер потока : 30,6 Мбайт (3%)
Service kind : Complete Main

pb.wtf



pack Скачать Порочные Желания через торрент https://d.radikal.ru/d33/2111/fe/6114603a5050.png Скачать, смотреть онлайн Порочные Желания бесплантно в хорошем качестве Описание: The wealthy and perverted Clanddi, owner of the luxurious manor, takes care of training her charming maids. She doesn't hesitate ... 9.5 10 4
Info! Золотая раздача, скачанное не засчитывается.
Торрент: Зарегистрирован [2021-11-25 04:30] · скачан: 74 раз
Статус: √ проверено
Размер: 6.95 GB
Как cкачать? Как скачать Порочные Желания через торрент | UTorrent

28-11-2019 20:33  

Отключить всю рекламу на сайте

    Дорогой пользователь! Огромная просьба, поблагодарите релизера, оцените раздачу и оставьте свои комментарий, если Вы скачали Порочные Желания через торрент бесплатно!
    Комментировать посты могут только пользователи прошедшие не сложную регистрацию
    Показать сообщения:    

    Порочные Желания через торрент
    Скачать бесплатно Порочные Желания
    Порочные Желания скачать торрент
    Порочные Желания смотреть онлайн
    Cкачать фильм Порочные Желания бесплатно
    Порочные Желания скачать торрент в хорошем качестве
    Порочные Желания смотреть онлайн бесплатно в хорошем качестве


    Вы не можете начинать темы
    Вы не можете отвечать на сообщения
    Вы не можете редактировать свои сообщения
    Вы не можете удалять свои сообщения
    Вы не можете голосовать в опросах
    Вы не можете прикреплять файлы к сообщениям
    Вы можете скачивать файлы