Доктор Стрэндж

Лицензия

Добыча

MVO

Дом дракона

1 сезон

Тор

Лицензия

Мэверик

Лицензия

Там, где раки поют

MVO

Властелин колец

1 сезон

Ultimate

pack

Рекомендуем

30

Repack

ВАЖНО

ВАЖНО

Ghostwire

RePack

jed

RePack

nioh2

RePack

RDR2

RePack

NEED FOR SPEED™ PAYBACK

RePack

скачать торрент

Кинопоиск HD

Острые козырьки 6 сезон

6 сезон

FAR CRY 6

RePack

скачать торрент

Лицензия

скачать торрент

MVO

1

1 сезон

скачать торрент

1 сезон

скачать торрент

Лицензия

  

План побега / Escape Plan (Микаэль Хофстрём) [2013 г., Боевик, триллер, BDRip 720p / 60 FPS, Дубляж] от R.G. HD-Films

План побега через торрент pb.wtf

Раздают: 1 [ 0 KB/s ]
Размер: 3.98 GB | Добавлен: 10 мес. назад | Торрент скачан:57 раз
Смотреть онлайн План побега | Скачать   

25-11-2021 15:44 План побега Скачать торрент  

План побега / Escape Plan
Год выпуска: 2013
Страна: США
Жанр: Боевик, триллер
Продолжительность: 01:55:21
Перевод: Дубляж
Субтитры: Russian, English

Режиссер: Микаэль Хофстрём

Бюджет: $50 000 000
Премьера в мире: 18 июля 2013

rating

В ролях: Сильвестр Сталлоне, Арнольд Шварценеггер, Джеймс Кэвизел, Фаран Таир, Сэм Нил, Фифти Сент, Винни Джонс, Винсент Д’Онофрио, Эми Райан, Мэтт Джералд.

Описание: Один из самых выдающихся мировых специалистов по системам безопасности соглашается на последнюю рисковую операцию: сбежать из суперсекретной высокотехнологичной тюрьмы, которую называют «Гробницей». Преданный Рэй Бреслин вынужден прибегнуть к помощи напарника — заключенного Эмиля Ротмайера, чтобы разработать отчаянный и практически неосуществимый план побега из самой защищенной тюрьмы в мире!

Качество: BDRip 720p / 60 FPS
Формат: MKV
Видео кодек: H.264
Аудио кодек: AC3
Видео: x264, 1280 x 536 ( 2,40:1 ), 4554 kbps, 60,000 fps, ( 0.111 bpp)
Аудио#1: Русский, AC-3, 48.0 KHz, 6 ch, 384 Kbps
Релиз от: Автор рипа: slaventi-69
x264 [info]: profile High, level 4.1
x264 [info]: frame I:2461 Avg QP:14.28 size: 80675
x264 [info]: frame P:96713 Avg QP:15.58 size: 17926
x264 [info]: frame B:316135 Avg QP:18.18 size: 6352
x264 [info]: consecutive B-frames: 2.2% 3.3% 6.3% 15.9% 57.0% 15.3%


Общее
Уникальный идентификатор : 255000474734836049216136767232932843595 (0xBFD74E154C3A8A6117132AD52CE0104B)
Полное имя : F:\60 FPS\Escape.Plan.(2013).BDRip.720p.(60 Fps).mkv
Формат : Matroska
Версия формата : Version 4
Размер файла : 3,98 Гбайт
Продолжительность : 1 ч. 55 м.
Общий поток : 4942 Кбит/сек
Название фильма : План побега / Escape Plan (2013) BDRip 720p (60 Fps)
Дата кодирования : UTC 2021-11-25 15:22:32
Программа кодирования : mkvmerge v56.1.0 ('My Friend') 32-bit
Библиотека кодирования : libebml v1.4.2 + libmatroska v1.6.4

Видео
Идентификатор : 1
Формат : AVC
Формат/Информация : Advanced Video Codec
Профиль формата : [email protected]
Настройки формата : CABAC / 9 Ref Frames
Параметр CABAC формата : Да
Параметр RefFrames формата : 9 кадров
Идентификатор кодека : V_MPEG4/ISO/AVC
Продолжительность : 1 ч. 55 м.
Битрейт : 4554 Кбит/сек
Ширина : 1280 пикселей
Высота : 536 пикселей
Соотношение сторон : 2,40:1
Режим частоты кадров : Постоянный
Частота кадров : 60,000 кадров/сек
Цветовое пространство : YUV
Субдискретизация насыщенности : 4:2:0
Битовая глубина : 8 бит
Тип развёртки : Прогрессивная
Бит/(Пиксели*Кадры) : 0.111
Размер потока : 3,67 Гбайт (92%)
Заголовок : slaventi-69 ( R.G. HD-Films | 60 fps )
Библиотека кодирования : x264 core 130 r2273 b3065e6
Настройки программы : cabac=1 / ref=10 / deblock=1:-2:-2 / analyse=0x3:0x133 / me=umh / subme=9 / psy=1 / psy_rd=1.00:0.00 / mixed_ref=1 / me_range=30 / chroma_me=1 / trellis=2 / 8x8dct=1 / cqm=0 / deadzone=21,11 / fast_pskip=0 / chroma_qp_offset=-2 / threads=10 / lookahead_threads=4 / sliced_threads=0 / nr=0 / decimate=1 / interlaced=0 / bluray_compat=0 / constrained_intra=0 / bframes=5 / b_pyramid=1 / b_adapt=2 / b_bias=0 / direct=2 / weightb=1 / open_gop=0 / weightp=2 / keyint=600 / keyint_min=23 / scenecut=40 / intra_refresh=0 / rc=crf / mbtree=0 / crf=16.2 / qcomp=0.60 / qpmin=0 / qpmax=69 / qpstep=4 / ip_ratio=1.40 / pb_ratio=1.30 / aq=1:1.00
Язык : English
Default : Да
Forced : Нет

Аудио
Идентификатор : 2
Формат : AC-3
Формат/Информация : Audio Coding 3
Коммерческое название : Dolby Digital
Идентификатор кодека : A_AC3
Продолжительность : 1 ч. 55 м.
Вид битрейта : Постоянный
Битрейт : 384 Кбит/сек
Каналы : 6 каналов
Channel layout : L R C LFE Ls Rs
Частота : 48,0 КГц
Частота кадров : 31,250 кадров/сек (1536 SPF)
Битовая глубина : 16 бит
Метод сжатия : С потерями
Размер потока : 317 Мбайт (8%)
Заголовок : Dub
Язык : Russian
ServiceKind/String : Complete Main
Default : Да
Forced : Нет

Текст #1
Идентификатор : 3
Формат : UTF-8
Идентификатор кодека : S_TEXT/UTF8
Идентификатор кодека/Информация : UTF-8 Plain Text
Продолжительность : 1 ч. 46 м.
Битрейт : 73 бит/сек
ElementCount : 1124
Размер потока : 57,2 Кбайт (0%)
Заголовок : full
Язык : Russian
Default : Нет
Forced : Нет

Текст #2
Идентификатор : 4
Формат : UTF-8
Идентификатор кодека : S_TEXT/UTF8
Идентификатор кодека/Информация : UTF-8 Plain Text
Продолжительность : 1 ч. 45 м.
Битрейт : 42 бит/сек
ElementCount : 1186
Размер потока : 32,7 Кбайт (0%)
Заголовок : full
Язык : English
Default : Нет
Forced : Нет

Меню
00:00:00.000 : 00:00:00.000
00:06:33.643 : 00:06:33.643
00:15:40.940 : 00:15:40.940
00:19:50.439 : 00:19:50.439
00:26:22.706 : 00:26:22.706
00:33:08.111 : 00:33:08.111
00:39:14.310 : 00:39:14.310
00:45:41.697 : 00:45:41.697
00:50:07.171 : 00:50:07.171
00:58:59.494 : 00:58:59.494
01:06:44.834 : 01:06:44.834
01:13:51.135 : 01:13:51.135
01:21:04.359 : 01:21:04.359
01:27:58.523 : 01:27:58.523
01:35:35.188 : 01:35:35.188
01:42:14.879 : 01:42:14.879

Просьба к переливающим на другие сайты, в оформлении указывайте пожалуйста авторство группы R.G. HD-Films



Скачать План побега через торрент https://d.radikal.ru/d26/2109/20/d66db8ca8295.jpg Скачать, смотреть онлайн План побега бесплантно в хорошем качестве Описание: Один из самых выдающихся мировых специалистов по системам безопасности соглашается на последнюю рисковую операцию: сбежать из ... 10 10 6
Info! Золотая раздача, скачанное не засчитывается.
Торрент: Зарегистрирован [2021-11-25 15:44] · скачан: 57 раз
Статус: √ проверено
Размер: 3.98 GB
Как cкачать? Как скачать План побега через торрент | UTorrent

% Раздел Тема Автор DL S | L
Ultra HD (UHD: 2K, 4K, 8K) [ 56.23 GB ] План побега / Escape Plan | DUB | 2160p sheker187 Скачать
1 | 0
Ultra HD (UHD: 2K, 4K, 8K) [ 84.35 GB ] План побега / Escape Plan | DUB + 2xAVO | 2160p sheker187 Скачать
1 | 0
Ultra HD (UHD: 2K, 4K, 8K) [ 90.29 GB ] План побега / Escape Plan | Лицензия | 2160p bober100 Скачать
1 | 0
Ultra HD (UHD: 2K, 4K, 8K) [ 33.24 GB ] План побега / Escape Plan | DUB + 4xAVO + MVO | 2160p sheker187 Скачать
1 | 0
Ultra HD (UHD: 2K, 4K, 8K) [ 75.44 GB ] План побега / Escape Plan | DUB + 4xAVO + MVO | 2160p sheker187 Скачать
1 | 0
Фильмы (Blu-ray, BD-Remux, HDDVD) [ 51.74 GB ] План побега / Escape Plan | Дубляж | 1080p, Дубляж Russian Mafia Скачать
1 | 0
Фильмы [HD 720p, 1080p] (Хороший звук DUB, MVO) [ 6.97 GB ] План побега / Escape Plan | DUB | 720p от potroks potroks Скачать
1 | 0

28-11-2019 20:33  

Отключить вcю реклaмy на сайте

26-11-2021 18:36 План побега Скачать торрент  

Спасибо! Жду продолжения! Участников прошу помочь с золотом!(Ато у меня на все три не хватит!)



27-11-2021 15:02 План побега Скачать торрент  

Пожалуйста. Смотрите в удовольствие.



    Дорогой пользователь! Огромная просьба, поблагодарите релизера, оцените раздачу и оставьте свои комментарий, если Вы скачали План побега через торрент бесплатно!!
    Комментировать посты могут только пользователи прошедшие не сложную регистрацию
    Показать сообщения:    


    План побега через торрент
    Скачать бесплатно План побега
    План побега скачать торрент
    План побега смотреть онлайн
    Cкачать фильм План побега бесплатно
    План побега скачать торрент в хорошем качестве
    План побега смотреть онлайн бесплатно в хорошем качестве
    Вы не можете начинать темы
    Вы не можете отвечать на сообщения
    Вы не можете редактировать свои сообщения
    Вы не можете удалять свои сообщения
    Вы не можете голосовать в опросах
    Вы не можете прикреплять файлы к сообщениям
    Вы можете скачивать файлы