Присоединяйтесь к нам в Telegram!, здесь всегда актуальный адрес сайта, оперативная поддержка и многое другое!!

>

5.9

iTunes

7.4

iTunes

9.4

1 сезон

1

7.4

2 сезон

7.2

iTunes

7.3

1 сезон

13

6.1

iTunes

8.3

GOG

30

ULTIMATE

pack

9.9

Лицензия

ВАЖНО

ИГРА 18+

pack

7.3

RePack

MK11

7.7

RePack

jed

7.8

RePack

fifa19

8.5

RePack

RDR2

RePack

NEED FOR SPEED™ PAYBACK

5 сезон

9 сезон

Бесстыжие 9 сезон

Все сериалы

все сериалы на PB.wtf

RePack

FAR CRY 5

Anonymous, доброе утро, мы катастрофически не успеваем собрать деньги на оплату серверов, помогите нам пожалуйста 5,10,15р., для нас важна любая помощь . В качестве благодарности мы отключим Вам всю рекламу на сайте (укажите свой ник в строку Ваше имя)!

×
  
Magnet ссылка

Мальчик по имени Рождество / A Boy Called Christmas (Гил Кинан) [2021, фэнтези, драма, приключения, семейный, WEB-DLRip-AVC] DUB [Netflix] от ExKinoRay pb.wtf

Мальчик по имени Рождество через торрент pb.wtf

Раздают: 3 [ 0 KB/s ]
Размер: 2.01 GB | Добавлен: 4 д. назад | Торрент скачан:32 раза
Смотреть онлайн Мальчик по имени Рождество | Скачать    Ребята, помогите собрать деньги на оплату серверов!!!

25-11-2021 17:28 Мальчик по имени Рождество Скачать торрент  


Мальчик по имени Рождество / A Boy Called Christmas
Информация о фильме:
Название: Мальчик по имени Рождество
Оригинальное название: A Boy Called Christmas
Год выхода: 2021
Жанр: Фэнтези, драма, приключения, семейный
Режиссер: Гил Кинан

В ролях: Кристен Уиг, Микил Хаусмен, Мэгги Смит, Зои Маргарет Коллетти, Салли Хокинс, Джим Бродбент, Тоби Джонс, Рюн Темт, Индика Уотсон, Синед Фелпс, Абиола Огунбийи

Описание: «Мальчик по имени Рождество» — это история о приключениях юного Николаса, которому суждено стать символом главного христианского праздника. Прежде чем получить известность под именем Санта-Клауса, Николас был самым обычным мальчиком, который рос в бедной семье. Однажды его отец пропал, и герой отправился на Северный полюс, чтобы спасти его. Так он открыл для себя волшебный мир и вернул деревне эльфов дух Рождества.



Страна: Великобритания, Франция
Студия: Blueprint Pictures, Canal+ [fr], Ciné, Netflix, Studio Canal
Продолжительность: 01:45:22
Перевод: Дублированный - Netflix



Информация о файле:
Кодек: AVC
Формат: MKV
Качество: WEB-DLRip-AVC
Видео: MPEG-4 AVC, 1024x428, 24.000 fps, 1800 kbps
Аудио RU: AC3, 6 ch, 48 kHz, 448 kbps
Аудио EN: AC3, 6 ch, 48 kHz, 448 kbps
Субтитры: Русские (Forced, full), украинские (Full), английские

x264 info: frame I:1385 Avg QP:16.23 size: 56055
x264 info: frame P:40436 Avg QP:18.23 size: 19438
x264 info: frame B:111903 Avg QP:20.10 size: 4634
x264 info: consecutive B-frames: 4.1% 8.5% 15.2% 18.8% 12.9% 35.9% 1.0% 0.4% 0.5% 0.7% 2.1%
General
Unique ID : 244254353745824292039381784568381428354 (0xB7C1AD699A06D9006F233766D9D5D282)
Complete name : D:uTorrentРипы wolf1245A.Boy.Called.Christmas.2021.DUB.Netflix.WEB-DLRip-AVC.[wolf1245.ExKinoRay].mkv
Format : Matroska
Format version : Version 4
File size : 2.01 GiB
Duration : 1 h 46 min
Overall bit rate : 2 698 kb/s
Movie name : A.Boy.Called.Christmas.2021.DUB.Netflix.WEB-DLRip-AVC.[wolf1245.ExKinoRay]
Encoded date : UTC 2021-11-25 16:23:56
Writing application : mkvmerge v63.0.0 ('Everything') 64-bit
Writing library : libebml v1.4.2 + libmatroska v1.6.4
Video
ID : 1
Format : AVC
Format/Info : Advanced Video Codec
Format profile : High@L4.1
Format settings : CABAC / 12 Ref Frames
Format settings, CABAC : Yes
Format settings, Reference frames : 12 frames
Codec ID : V_MPEG4/ISO/AVC
Duration : 1 h 46 min
Bit rate : 1 800 kb/s
Width : 1 024 pixels
Height : 428 pixels
Display aspect ratio : 2.40:1
Frame rate mode : Constant
Frame rate : 24.000 FPS
Color space : YUV
Chroma subsampling : 4:2:0
Bit depth : 8 bits
Scan type : Progressive
Bits/(Pixel*Frame) : 0.171
Stream size : 1.34 GiB (67%)
Title : -=[wolf1245.ExKinoRay]=-
Writing library : x264 core 163 r3060 5db6aa6
Encoding settings : cabac=1 / ref=12 / deblock=1:-2:-2 / analyse=0x3:0x133 / me=umh / subme=10 / psy=1 / psy_rd=1.05:0.10 / mixed_ref=1 / me_range=48 / chroma_me=1 / trellis=2 / 8x8dct=1 / cqm=0 / deadzone=21,11 / fast_pskip=1 / chroma_qp_offset=-3 / threads=10 / lookahead_threads=2 / sliced_threads=0 / nr=0 / decimate=0 / interlaced=0 / bluray_compat=0 / constrained_intra=0 / bframes=10 / b_pyramid=2 / b_adapt=2 / b_bias=0 / direct=3 / weightb=1 / open_gop=0 / weightp=2 / keyint=240 / keyint_min=24 / scenecut=40 / intra_refresh=0 / rc_lookahead=60 / rc=2pass / mbtree=0 / bitrate=1800 / ratetol=1.0 / qcomp=0.60 / qpmin=0 / qpmax=69 / qpstep=4 / cplxblur=20.0 / qblur=0.5 / vbv_maxrate=50000 / vbv_bufsize=62500 / nal_hrd=none / filler=0 / ip_ratio=1.40 / pb_ratio=1.30 / aq=3:0.80
Language : English
Default : Yes
Forced : No
Audio #1
ID : 2
Format : AC-3
Format/Info : Audio Coding 3
Commercial name : Dolby Digital
Codec ID : A_AC3
Duration : 1 h 46 min
Bit rate mode : Constant
Bit rate : 448 kb/s
Channel(s) : 6 channels
Channel layout : L R C LFE Ls Rs
Sampling rate : 48.0 kHz
Frame rate : 31.250 FPS (1536 SPF)
Compression mode : Lossy
Stream size : 342 MiB (17%)
Title : DUB | Netflix
Language : Russian
Service kind : Complete Main
Default : Yes
Forced : No
Audio #2
ID : 3
Format : AC-3
Format/Info : Audio Coding 3
Commercial name : Dolby Digital
Codec ID : A_AC3
Duration : 1 h 46 min
Bit rate mode : Constant
Bit rate : 448 kb/s
Channel(s) : 6 channels
Channel layout : L R C LFE Ls Rs
Sampling rate : 48.0 kHz
Frame rate : 31.250 FPS (1536 SPF)
Compression mode : Lossy
Stream size : 342 MiB (17%)
Title : Original
Language : English
Service kind : Complete Main
Default : Yes
Forced : No
Text #1
ID : 4
Format : UTF-8
Codec ID : S_TEXT/UTF8
Codec ID/Info : UTF-8 Plain Text
Duration : 1 h 42 min
Bit rate : 0 b/s
Count of elements : 6
Stream size : 309 Bytes (0%)
Title : Forced
Language : Russian
Default : Yes
Forced : Yes
Text #2
ID : 5
Format : UTF-8
Codec ID : S_TEXT/UTF8
Codec ID/Info : UTF-8 Plain Text
Duration : 1 h 41 min
Bit rate : 67 b/s
Count of elements : 1638
Stream size : 50.3 KiB (0%)
Title : English (SDH)
Language : English
Default : No
Forced : No
Text #3
ID : 6
Format : UTF-8
Codec ID : S_TEXT/UTF8
Codec ID/Info : UTF-8 Plain Text
Duration : 1 h 42 min
Bit rate : 78 b/s
Count of elements : 1212
Stream size : 59.1 KiB (0%)
Title : Full
Language : Russian
Default : No
Forced : No
Text #4
ID : 7
Format : UTF-8
Codec ID : S_TEXT/UTF8
Codec ID/Info : UTF-8 Plain Text
Duration : 1 h 42 min
Bit rate : 78 b/s
Count of elements : 1178
Stream size : 59.3 KiB (0%)
Title : Ukrainian
Language : Ukrainian
Default : No
Forced : No
Релиз от:
Автор релиза:
pb.wtf



Скачать Мальчик по имени Рождество через торрент https://a.radikal.ru/a24/2111/e4/0b45e4dd5df1.jpg Скачать, смотреть онлайн Мальчик по имени Рождество бесплантно в хорошем качестве Описание: «Мальчик по имени Рождество» — это история о приключениях юного Николаса, которому суждено стать символом главного ... 10 10 1
Торрент: Зарегистрирован [2021-11-25 17:28] · скачан: 32 раз
Статус: √ проверено
Размер: 2.01 GB
Как cкачать? Как скачать Мальчик по имени Рождество через торрент | UTorrent

28-11-2019 20:33  

Отключить всю рекламу на сайте

    Дорогой пользователь! Огромная просьба, поблагодарите релизера, оцените раздачу и оставьте свои комментарий, если Вы скачали Мальчик по имени Рождество через торрент бесплатно!
    Комментировать посты могут только пользователи прошедшие не сложную регистрацию
    Показать сообщения:    

    Мальчик по имени Рождество через торрент
    Скачать бесплатно Мальчик по имени Рождество
    Мальчик по имени Рождество скачать торрент
    Мальчик по имени Рождество смотреть онлайн
    Cкачать фильм Мальчик по имени Рождество бесплатно
    Мальчик по имени Рождество скачать торрент в хорошем качестве
    Мальчик по имени Рождество смотреть онлайн бесплатно в хорошем качестве


    Вы не можете начинать темы
    Вы не можете отвечать на сообщения
    Вы не можете редактировать свои сообщения
    Вы не можете удалять свои сообщения
    Вы не можете голосовать в опросах
    Вы не можете прикреплять файлы к сообщениям
    Вы можете скачивать файлы