Присоединяйтесь к нам в Telegram!, здесь всегда актуальный адрес сайта, оперативная поддержка и многое другое!!

>

5.9

iTunes

7.4

iTunes

9.4

1 сезон

1

7.4

2 сезон

7.2

iTunes

7.3

1 сезон

13

6.1

iTunes

8.3

Пиратка

30

ULTIMATE

pack

9.9

Лицензия

ВАЖНО

ИГРА 18+

pack

7.3

RePack

MK11

7.7

RePack

jed

7.8

RePack

fifa19

8.5

RePack

RDR2

RePack

NEED FOR SPEED™ PAYBACK

5 сезон

9 сезон

Бесстыжие 9 сезон

Все сериалы

все сериалы на PB.wtf

RePack

FAR CRY 5

Anonymous, доброй ночи, мы катастрофически не успеваем собрать деньги на оплату серверов, помогите нам пожалуйста 5,10,15р., для нас важна любая помощь . В качестве благодарности мы отключим Вам всю рекламу на сайте (укажите свой ник в строку Ваше имя)!

×
  
Magnet ссылка

Тайна Сен-Тропе / Mystère à Saint-Tropez (Николя Бенаму) [2021, Комедия, криминал, детектив, WEB-DLRip-AVC] DUB [iTunes] от ExKinoRay pb.wtf

Тайна Сен-Тропе через торрент pb.wtf

Раздают: 3 [ 0 KB/s ]
Размер: 1.56 GB | Добавлен: 10 д. назад | Торрент скачан:68 раз
Смотреть онлайн Тайна Сен-Тропе | Скачать    Ребята, помогите собрать деньги на оплату серверов!!!

25-11-2021 18:32 Тайна Сен-Тропе Скачать торрент  


Тайна Сен-Тропе / Mystère à Saint-Tropez
Информация о фильме:
Название: Тайна Сен-Тропе
Оригинальное название: Mystère à Saint-Tropez
Год выхода: 2021
Жанр: Комедия, криминал, детектив
Режиссер: Николя Бенаму

В ролях: Кристиан Клавье, Бенуа Пульворд, Тьерри Лермитт, Жером Коммандёр, Росси де Пальма, Вирджини Хок, Жерар Депардье, Венсан Дезанья, Николя Бриансон, Жиль Альма

Описание: Убийство — это не повод для смеха. Обычно. Но вот попробуйте сдержать улыбку, когда преступление происходит среди харизматичных богачей на курорте Сен-Тропе, а расследование ведет весьма эксцентричный и не самый смышленый сыщик. Мотив есть у каждого, а вот с дедукцией — явно дефицит! Чтобы распутать это дело, горе-детективу придется притвориться дворецким и затеряться между пафосными знаменитостями и знойными женщинами в этом Провансе гламура и роскоши. Что ж, такой отпуск точно будет незабываемым.



Страна: Франция, Бельгия
Студия: Canal+ [fr], Ciné, Curiosa Films, France 2 Cinéma, France Télévision, Investisseurs Tax Shelter, Le Tax Shelter du Gouvernement Fédéral de Belgique, Ouille Productions, Région de Bruxelles-Capitale, Studio Canal, uFund, uMedia Family
Продолжительность: 01:29:57
Перевод: Профессиональный (полное дублирование) - iTunes



Информация о файле:
Кодек: AVC
Формат: MKV
Качество: WEB-DLRip-AVC
Видео: MPEG-4 AVC, 1024x428, 24,000 fps, 2100 kbps
Аудио RU: AC3, 6 ch, 48 kHz, 384 kbps

x264 info: frame I:1863 Avg QP:17.79 size: 60849
x264 info: frame P:34601 Avg QP:19.20 size: 21744
x264 info: frame B:93068 Avg QP:21.17 size: 5893
x264 info: consecutive B-frames: 3.5% 5.4% 6.3% 67.1% 7.4% 6.9% 1.8% 0.5% 0.1% 0.3% 0.7%
General
Unique ID : 7626885311266672286936804192328737393 (0x5BCE27A691D41500CBDA22ADB91E271)
Complete name : D:uTorrentРипы wolf1245Mystere.a.Saint.Tropez.2021.DUB.iTunes.WEB-DLRip-AVC.[wolf1245.ExKinoRay].mkv
Format : Matroska
Format version : Version 4
File size : 1.56 GiB
Duration : 1 h 29 min
Overall bit rate : 2 483 kb/s
Movie name : Mystere.a.Saint.Tropez.2021.DUB.iTunes.WEB-DLRip-AVC.[wolf1245.ExKinoRay]
Encoded date : UTC 2021-11-25 18:19:15
Writing application : mkvmerge v63.0.0 ('Everything') 64-bit
Writing library : libebml v1.4.2 + libmatroska v1.6.4
Cover : Yes
Attachments : cover.jpg
Video
ID : 1
Format : AVC
Format/Info : Advanced Video Codec
Format profile : High@L4.1
Format settings : CABAC / 12 Ref Frames
Format settings, CABAC : Yes
Format settings, Reference frames : 12 frames
Codec ID : V_MPEG4/ISO/AVC
Duration : 1 h 29 min
Bit rate : 2 100 kb/s
Width : 1 024 pixels
Height : 428 pixels
Display aspect ratio : 2.40:1
Frame rate mode : Constant
Frame rate : 24.000 FPS
Color space : YUV
Chroma subsampling : 4:2:0
Bit depth : 8 bits
Scan type : Progressive
Bits/(Pixel*Frame) : 0.200
Stream size : 1.32 GiB (84%)
Title : -=[wolf1245.ExKinoRay]=-
Writing library : x264 core 163 r3060 5db6aa6
Encoding settings : cabac=1 / ref=12 / deblock=1:-2:-2 / analyse=0x3:0x133 / me=umh / subme=10 / psy=1 / psy_rd=1.05:0.10 / mixed_ref=1 / me_range=48 / chroma_me=1 / trellis=2 / 8x8dct=1 / cqm=0 / deadzone=21,11 / fast_pskip=1 / chroma_qp_offset=-3 / threads=10 / lookahead_threads=2 / sliced_threads=0 / nr=0 / decimate=0 / interlaced=0 / bluray_compat=0 / constrained_intra=0 / bframes=10 / b_pyramid=2 / b_adapt=2 / b_bias=0 / direct=3 / weightb=1 / open_gop=0 / weightp=2 / keyint=240 / keyint_min=24 / scenecut=40 / intra_refresh=0 / rc_lookahead=60 / rc=2pass / mbtree=0 / bitrate=2100 / ratetol=1.0 / qcomp=0.60 / qpmin=0 / qpmax=69 / qpstep=4 / cplxblur=20.0 / qblur=0.5 / vbv_maxrate=50000 / vbv_bufsize=62500 / nal_hrd=none / filler=0 / ip_ratio=1.40 / pb_ratio=1.30 / aq=3:0.80
Language : English
Default : Yes
Forced : No
Color range : Limited
Color primaries : BT.709
Transfer characteristics : BT.709
Matrix coefficients : BT.709
Audio
ID : 2
Format : AC-3
Format/Info : Audio Coding 3
Commercial name : Dolby Digital
Codec ID : A_AC3
Duration : 1 h 29 min
Bit rate mode : Constant
Bit rate : 384 kb/s
Channel(s) : 6 channels
Channel layout : L R C LFE Ls Rs
Sampling rate : 48.0 kHz
Frame rate : 31.250 FPS (1536 SPF)
Compression mode : Lossy
Stream size : 247 MiB (15%)
Title : DUB | iTunes
Language : Russian
Service kind : Complete Main
Default : Yes
Forced : No
Menu
00:00:00.000 : :Глава 1
00:08:12.333 : :Глава 2
00:13:09.124 : :Глава 3
00:21:29.957 : :Глава 4
00:26:51.790 : :Глава 5
00:32:43.665 : :Глава 6
00:41:28.498 : :Глава 7
00:49:45.164 : :Глава 8
00:56:45.705 : :Глава 9
01:03:31.830 : :Глава 10
01:11:42.871 : :Глава 11
01:18:17.871 : :Глава 12
01:24:33.662 : :Глава 13
Релиз от:
Автор релиза:
pb.wtf



Скачать Тайна Сен-Тропе через торрент https://i116.fastpic.org/big/2021/1122/c4/988f29d11612e37aefbb01adf86441c4.jpg Скачать, смотреть онлайн Тайна Сен-Тропе бесплантно в хорошем качестве Описание: Убийство — это не повод для смеха. Обычно. Но вот попробуйте сдержать улыбку, когда преступление происходит среди харизматичных ... 10 10 2
Info! Золотая раздача, скачанное не засчитывается.
Торрент: Зарегистрирован [2021-11-25 18:32] · скачан: 68 раз
Статус: √ проверено
Размер: 1.56 GB
Как cкачать? Как скачать Тайна Сен-Тропе через торрент | UTorrent

28-11-2019 20:33  

Отключить всю рекламу на сайте

    Дорогой пользователь! Огромная просьба, поблагодарите релизера, оцените раздачу и оставьте свои комментарий, если Вы скачали Тайна Сен-Тропе через торрент бесплатно!
    Комментировать посты могут только пользователи прошедшие не сложную регистрацию
    Показать сообщения:    

    Тайна Сен-Тропе через торрент
    Скачать бесплатно Тайна Сен-Тропе
    Тайна Сен-Тропе скачать торрент
    Тайна Сен-Тропе смотреть онлайн
    Cкачать фильм Тайна Сен-Тропе бесплатно
    Тайна Сен-Тропе скачать торрент в хорошем качестве
    Тайна Сен-Тропе смотреть онлайн бесплатно в хорошем качестве


    Вы не можете начинать темы
    Вы не можете отвечать на сообщения
    Вы не можете редактировать свои сообщения
    Вы не можете удалять свои сообщения
    Вы не можете голосовать в опросах
    Вы не можете прикреплять файлы к сообщениям
    Вы можете скачивать файлы