Всегда рабочее зеркало без VPN и Proxy просто перед .vidak.icu напиши любое слово или цифру, Пример http://yqei.vidak.icu

MVO

Лицензия

1 сезон

1

1 сезон

iTunes

1 сезон

13

1 сезон

Deluxe

pack

Рекомендуем

Repack

30

ВАЖНО

RePack

MK11

RePack

jed

RePack

fifa19

RePack

RDR2

RePack

NEED FOR SPEED™ PAYBACK

Кинопоиск HD

6 сезон

 Острые козырьки 6 сезон

Все сериалы

все сериалы на PB.wtf

RePack

FAR CRY 5
  
Magnet ссылка

Отряд Фокстрот / Foxtrot Six (Рэнди Коромпис) [2019, Фантастика, боевик, драма, BDRip 720p] DUB [IVI] pb.wtf

Отряд Фокстрот через торрент pb.wtf

Размер: 3.88 GB | Добавлен: 7 мес. назад | Торрент скачан:45 раз
Смотреть онлайн Отряд Фокстрот | Скачать    Ребята, помогите собрать деньги на оплату серверов!!!

26-11-2021 15:44 Отряд Фокстрот Скачать торрент  

Отряд Фокстрот | Foxtrot Six
Год выпуска: 2019
Страна: Индонезия, США
Выпущено: MD Pictures, Rapid Eye Pictures
Жанр: Фантастика, боевик, драма
Продолжительность: 01:55:06
Перевод: Дублированный | IVI
Субтитры: Английские (Full, SDH)

Режиссер: Рэнди Коромпис

rating

В ролях: Ока Антара, Верди Солайман, Чикко Иерихо, Рио Деванто, Арифин Путра, Майк Льюис, Миллер Кхан, Эдвард Акбар, Джулия Эстелл, Норман Р. Акьювен и др.

Описание: Через 10 лет после расставания группа индонезийских спецназовцев объединяется, чтобы побороть зловещую копорацию «Пиранья», захватившую Влacть над страной, и восстановить справедливость.

Качество: BDRip 720p
Формат: MKV

Видео: 1280x532 (2.40:1), 23.976 fps, MPEG-4 AVC ~ 4 000 Kbps avg, 0.245 bit/pixel
Аудио: AC3, 48 kHz, 2 ch, ~192.00 kbps avg | русский | DUB
Аудио: AC3, 48 kHz, 6 ch, ~640.00 kbps avg | английский |
скриншот  скриншот  скриншот  скриншот  скриншот  

Общее
Уникальный идентификатор : 219705790001055645449507768459610111136 (0xA549CBC61ED812579790BAC1C5B93CA0)
Полное имя : Foxtrot.Six.2019.720p.BluRay.DD.2.0.x264.MegaPeer.mkv
Формат : Matroska
Версия формата : Version 4
Размер файла : 3,88 Гбайт
Продолжительность : 1 ч. 55 м.
Общий поток : 4 832 Кбит/сек
Название фильма : Отряд Фокстрот / Foxtrot Six (2019) от MegaPeer
Дата кодирования : UTC 2021-11-26 14:33:40
Программа кодирования : mkvmerge v15.0.0 ('Duel with the Devil') 64-bit
Библиотека кодирования : libebml v1.3.5 + libmatroska v1.4.5
Обложка : Yes
Attachments : cover.jpg

Видео
Идентификатор : 1
Формат : AVC
Формат/Информация : Advanced Video Codec
Профиль формата : [email protected]
Настройки формата : CABAC / 12 Ref Frames
Параметр CABAC формата : Да
Параметр RefFrames формата : 12 кадров
Идентификатор кодека : V_MPEG4/ISO/AVC
Продолжительность : 1 ч. 55 м.
Битрейт : 4 000 Кбит/сек
Ширина : 1 280 пикселей
Высота : 532 пикселя
Соотношение сторон : 2,40:1
Режим частоты кадров : Постоянный
Частота кадров : 23,976 кадра/сек
Цветовое пространство : YUV
Субдискретизация насыщенности : 4:2:0
Битовая глубина : 8 бит
Тип развёртки : Прогрессивная
Бит/(Пиксели*Кадры) : 0.245
Размер потока : 3,21 Гбайт (83%)
Заголовок : [email protected]
Библиотека кодирования : x264 core 161 r3018 db0d417
Настройки программы : cabac=1 / ref=12 / deblock=1:-3:-3 / analyse=0x3:0x113 / me=umh / subme=10 / psy=1 / psy_rd=1.00:0.00 / mixed_ref=1 / me_range=48 / chroma_me=1 / trellis=2 / 8x8dct=1 / cqm=0 / deadzone=21,11 / fast_pskip=0 / chroma_qp_offset=-2 / threads=17 / lookahead_threads=2 / sliced_threads=0 / nr=0 / decimate=0 / interlaced=0 / bluray_compat=0 / constrained_intra=0 / bframes=9 / b_pyramid=2 / b_adapt=2 / b_bias=0 / direct=3 / weightb=1 / open_gop=0 / weightp=2 / keyint=240 / keyint_min=24 / scenecut=40 / intra_refresh=0 / rc_lookahead=40 / rc=2pass / mbtree=0 / bitrate=4000 / ratetol=1.0 / qcomp=0.60 / qpmin=0 / qpmax=69 / qpstep=4 / cplxblur=20.0 / qblur=0.5 / vbv_maxrate=50000 / vbv_bufsize=62500 / nal_hrd=none / filler=0 / ip_ratio=1.40 / pb_ratio=1.30 / aq=1:1.10
Язык : English
Default : Да
Forced : Нет

Аудио #1
Идентификатор : 2
Формат : AC-3
Формат/Информация : Audio Coding 3
Коммерческое название : Dolby Digital
Идентификатор кодека : A_AC3
Продолжительность : 1 ч. 55 м.
Вид битрейта : Постоянный
Битрейт : 192 Кбит/сек
Каналы : 2 канала
Channel layout : L R
Частота : 48,0 КГц
Частота кадров : 31,250 кадров/сек (1536 SPF)
Метод сжатия : С потерями
Размер потока : 158 Мбайт (4%)
Заголовок : DUB | IVI
Язык : Russian
Service kind : Complete Main
Default : Да
Forced : Нет

Аудио #2
Идентификатор : 3
Формат : AC-3
Формат/Информация : Audio Coding 3
Коммерческое название : Dolby Digital
Идентификатор кодека : A_AC3
Продолжительность : 1 ч. 55 м.
Вид битрейта : Постоянный
Битрейт : 640 Кбит/сек
Каналы : 6 каналов
Channel layout : L R C LFE Ls Rs
Частота : 48,0 КГц
Частота кадров : 31,250 кадров/сек (1536 SPF)
Метод сжатия : С потерями
Размер потока : 527 Мбайт (13%)
Язык : English
Service kind : Complete Main
Default : Нет
Forced : Нет

Текст #1
Идентификатор : 4
Формат : UTF-8
Идентификатор кодека : S_TEXT/UTF8
Идентификатор кодека/Информация : UTF-8 Plain Text
Продолжительность : 1 ч. 53 м.
Битрейт : 31 бит/сек
Count of elements : 1056
Размер потока : 26,4 Кбайт (0%)
Заголовок : Full
Язык : English
Default : Нет
Forced : Нет

Текст #2
Идентификатор : 5
Формат : UTF-8
Идентификатор кодека : S_TEXT/UTF8
Идентификатор кодека/Информация : UTF-8 Plain Text
Продолжительность : 1 ч. 53 м.
Битрейт : 36 бит/сек
Count of elements : 1303
Размер потока : 30,7 Кбайт (0%)
Заголовок : SDH
Язык : English
Default : Нет
Forced : Нет

Меню
00:00:00.000 : :Chapter
00:09:34.907 : :Chapter
00:18:09.713 : :Chapter
00:31:39.188 : :Chapter
00:37:39.465 : :Chapter
00:47:03.904 : :Chapter
00:55:52.098 : :Chapter
01:01:03.743 : :Chapter
01:08:32.733 : :Chapter
01:18:44.886 : :Chapter
01:26:20.258 : :Chapter
01:46:34.429 : :Chapter

pb.wtf



Скачать Отряд Фокстрот через торрент https://i116.fastpic.org/big/2021/1126/10/724b18e40840a81190178bc505766010.jpg Скачать, смотреть онлайн Отряд Фокстрот бесплантно в хорошем качестве Описание: Через 10 лет после расставания группа индонезийских спецназовцев объединяется, чтобы побороть зловещую копорацию «Пиранья», ... 7.8 10 4
Торрент: Зарегистрирован [2021-11-26 15:44] · скачан: 45 раз
Статус: √ проверено
Размер: 3.88 GB
Как cкачать? Как скачать Отряд Фокстрот через торрент | UTorrent

% Раздел Тема Автор DL S | L
Азиатские фильмы [ 1.46 GB ] Отряд Фокстрот / Foxtrot Six [2019 BDRip] DUB [IVI] bober100 Скачать
1 | 0
Азиатские фильмы [ 8.71 GB ] Отряд Фокстрот / Foxtrot Six [2019 BDRip 1080p] DUB [IVI] bober100 Скачать
1 | 0

28-11-2019 20:33  

Отключить всю рекламу на сайте

    Дорогой пользователь! Огромная просьба, поблагодарите релизера, оцените раздачу и оставьте свои комментарий, если Вы скачали Отряд Фокстрот через торрент бесплатно!
    Комментировать посты могут только пользователи прошедшие не сложную регистрацию
    Показать сообщения:    

    Отряд Фокстрот через торрент
    Скачать бесплатно Отряд Фокстрот
    Отряд Фокстрот скачать торрент
    Отряд Фокстрот смотреть онлайн
    Cкачать фильм Отряд Фокстрот бесплатно
    Отряд Фокстрот скачать торрент в хорошем качестве
    Отряд Фокстрот смотреть онлайн бесплатно в хорошем качестве


    Вы не можете начинать темы
    Вы не можете отвечать на сообщения
    Вы не можете редактировать свои сообщения
    Вы не можете удалять свои сообщения
    Вы не можете голосовать в опросах
    Вы не можете прикреплять файлы к сообщениям
    Вы можете скачивать файлы