Всегда рабочее зеркало просто перед .vidak.icu напиши любое слово или цифру, Пример http://3yz.vidak.icu

>

7.4

iTunes

7.4

2 сезон

9.4

1 сезон

1

7.4

2 сезон

7.2

iTunes

6.0

MVO

13

6.1

iTunes

8.3

Пиратка

30

ULTIMATE

pack

9.9

Лицензия

ВАЖНО

ИГРА 18+

pack

7.3

RePack

MK11

7.7

RePack

jed

7.8

RePack

fifa19

8.5

RePack

RDR2

RePack

NEED FOR SPEED™ PAYBACK

1 сезон

9 сезон

Бесстыжие 9 сезон

Все сериалы

все сериалы на PB.wtf

RePack

FAR CRY 5

Anonymous, доброй ночи, мы катастрофически не успеваем собрать деньги на оплату серверов, помогите нам пожалуйста 5,10,15р., для нас важна любая помощь . В качестве благодарности мы отключим Вам всю рекламу на сайте (укажите свой ник в строку Ваше имя)!

×
  
Magnet ссылка

Веном Дилогия / Venom Dilogy (Рубен Фляйшер, Энди Серкис) [2018-2021, фантастика, боевик, триллер, приключения, BDRip - HEVC 1080p 10 bit 60 FPS, DUB] pb.wtf

Веном Дилогия через торрент pb.wtf

Размер: 7.22 GB | Добавлен: 1 мес. 23 д. назад | Торрент скачан:26 раз
Смотреть онлайн Веном Дилогия | Скачать    Ребята, помогите собрать деньги на оплату серверов!!!

27-11-2021 18:19 Веном Дилогия Скачать торрент  



Venom
«Embrace your inner anti-hero»


Год выпуска: 2018
Страна: США
Жанр: фантастика, боевик, триллер, комикс, супергерой

Продолжительность: 01:52:08
Перевод: Дублированный | iTunes
Субтитры: русские |

Режиссер: Рубен Фляйшер
В ролях: Том Харди, Мишель Уильямс, Риз Ахмед, Рейд Скотт, Марчелла Браджио, Вуди Харрельсон, Дженни Слейт, Пегги Лу, Мак Брандт, Рон Сефас Джонс, Мишель Ли (II), Мелора Уолтерс, Сопе Алуко

Описание:
Что, если в один прекрасный день в тебя вселится симбиот, который наделит тебя сверхчеловеческими способностями? Вот только Веном — симбиот совсем недобрый, и договориться с ним невозможно. А нужно ли договариваться? Ведь в какой-то момент ты понимаешь, что быть плохим вовсе не так уж и плохо, так даже веселее. А в мире и так слишком много супергероев.

Мировая премьера: 1 октября 2018


Качество: BDRip 1080p Rip by DD2D3
Формат: MKV
Видео: V_MPEGH/ISO/HEVC; 1920x800 (2.40:1); 4004 Kbps; 59,940 fps; 0,043 bpp
Аудио: русский; AC3; 640 Kbps; CBR; 6 ch ||
Навигация по главам: есть



Общее
Уникальный идентификатор : 184425756922227862298741394883144530010 (0x8ABF1BD8D3EC3A21B4EC650CA447385A)
Полное имя : D:\Venom Dilogy (2018-2021) BDRip - HEVC 1080p 10 bit 60 FPS\Venom (2018) BDRip - HEVC 1080p 10 bit 60 FPS.mkv
Формат : Matroska
Версия формата : Version 4
Размер файла : 3,64 Гбайт
Продолжительность : 1 ч. 52 м.
Общий поток : 4 649 Кбит/сек
Название фильма : Rip by from DD2D3
Дата кодирования : UTC 2020-11-02 07:47:50
Программа кодирования : mkvmerge v10.0.0 ('To Drown In You') 32bit
Библиотека кодирования : libebml v1.3.4 + libmatroska v1.4.5
Attachments : poster

Видео
Идентификатор : 1
Формат : HEVC
Формат/Информация : High Efficiency Video Coding
Профиль формата : Main 10@L4.1@Main
Идентификатор кодека : V_MPEGH/ISO/HEVC
Продолжительность : 1 ч. 52 м.
Битрейт : 4 004 Кбит/сек
Ширина : 1 920 пикселей
Высота : 800 пикселей
Соотношение сторон : 2,40:1
Режим частоты кадров : Постоянный
Частота кадров : 59,940 (60000/1001) кадров/сек
Цветовое пространство : YUV
Субдискретизация насыщенности : 4:2:0
Битовая глубина : 10 бит
Бит/(Пиксели*Кадры) : 0.043
Размер потока : 3,14 Гбайт (86%)
Библиотека кодирования : x265 2.3+33-0b7d54dbb71a87a0:[Windows][MSVC 1800][64 bit] 10bit: KG7x [x265.ru]
Настройки программы : cpuid=1173503 / frame-threads=2 / numa-pools=4 / wpp / no-pmode / no-pme / no-psnr / no-ssim / log-level=2 / input-csp=1 / input-res=1920x800 / interlace=0 / total-frames=403316 / level-idc=41 / high-tier=1 / uhd-bd=0 / ref=3 / no-allow-non-conformance / no-repeat-headers / annexb / no-aud / no-hrd / info / hash=0 / no-temporal-layers / open-gop / min-keyint=25 / keyint=250 / bframes=4 / b-adapt=2 / b-pyramid / bframe-bias=0 / rc-lookahead=20 / lookahead-slices=5 / scenecut=40 / no-intra-refresh / ctu=64 / min-cu-size=8 / no-rect / no-amp / max-tu-size=32 / tu-inter-depth=1 / tu-intra-depth=1 / limit-tu=0 / rdoq-level=0 / dynamic-rd=0.00 / no-ssim-rd / signhide / no-tskip / nr-intra=0 / nr-inter=0 / no-constrained-intra / strong-intra-smoothing / max-merge=2 / limit-refs=3 / no-limit-modes / me=1 / subme=2 / merange=57 / temporal-mvp / weightp / no-weightb / no-analyze-src-pics / deblock=0:0 / sao / no-sao-non-deblock / rd=3 / no-early-skip / rskip / no-fast-intra / no-tskip-fast / no-cu-lossless / no-b-intra / rdpenalty=0 / psy-rd=2.00 / psy-rdoq=0.00 / no-rd-refine / analysis-mode=0 / no-lossless / cbqpoffs=0 / crqpoffs=0 / rc=abr / bitrate=4000 / qcomp=0.60 / qpstep=4 / stats-write=0 / stats-read=2 / cplxblur=20.0 / qblur=0.5 / ipratio=1.40 / pbratio=1.30 / aq-mode=1 / aq-strength=1.00 / cutree / zone-count=0 / no-strict-cbr / qg-size=32 / no-rc-grain / qpmax=69 / qpmin=0 / sar=1 / overscan=0 / videoformat=5 / range=0 / colorprim=2 / transfer=2 / colormatrix=2 / chromaloc=0 / display-window=0 / max-cll=0,0 / min-luma=0 / max-luma=1023 / log2-max-poc-lsb=8 / vui-timing-info / vui-hrd-info / slices=1 / opt-qp-pps / opt-ref-list-length-pps / no-multi-pass-opt-rps / scenecut-bias=0.05 / no-opt-cu-delta-qp / no-aq-motion / no-hdr / no-hdr-opt / refine-level=5 / no-limit-sao
Default : Да
Forced : Нет

Аудио
Идентификатор : 2
Формат : AC-3
Формат/Информация : Audio Coding 3
Коммерческое название : Dolby Digital
Идентификатор кодека : A_AC3
Продолжительность : 1 ч. 52 м.
Вид битрейта : Постоянный
Битрейт : 640 Кбит/сек
Каналы : 6 каналов
Channel layout : L R C LFE Ls Rs
Частота : 48,0 КГц
Частота кадров : 31,250 кадров/сек (1536 SPF)
Метод сжатия : С потерями
Размер потока : 513 Мбайт (14%)
Заголовок : Дубляж
Язык : Russian
Service kind : Complete Main
Default : Да
Forced : Нет

Текст
Идентификатор : 3
Формат : UTF-8
Идентификатор кодека : S_TEXT/UTF8
Идентификатор кодека/Информация : UTF-8 Plain Text
Продолжительность : 1 ч. 50 м.
Битрейт : 75 бит/сек
Count of elements : 1218
Размер потока : 61,0 Кбайт (0%)
Заголовок : Full (iTunes)
Язык : Russian
Default : Нет
Forced : Нет

Меню
00:00:00.000 : en:00:00:00.000
00:04:43.200 : en:00:04:43.200
00:10:58.074 : en:00:10:58.074
00:17:34.929 : en:00:17:34.929
00:24:05.486 : en:00:24:05.486
00:32:18.812 : en:00:32:18.812
00:40:07.447 : en:00:40:07.447
00:46:51.976 : en:00:46:51.976
00:53:26.203 : en:00:53:26.203
01:00:57.070 : en:01:00:57.070
01:04:01.796 : en:01:04:01.796
01:08:36.446 : en:01:08:36.446
01:11:12.852 : en:01:11:12.852
01:14:15.743 : en:01:14:15.743
01:21:18.749 : en:01:21:18.749
01:27:15.021 : en:01:27:15.021
скриншот  скриншот  скриншот  


© Оформление by DD2D3


Venom Let There Be Carnage


Год выпуска: 2021
Страна: США, Великобритания, Канада
Жанр: фантастика, боевик, триллер, приключения

Продолжительность: 01:37:33
Перевод: Дублированный | СинеЛаб СаундМикс
Субтитры: русские

Режиссер: Энди Серкис
В ролях: Том Харди, Вуди Харрельсон, Мишель Уильямс, Наоми Харрис, Рейд Скотт, Стивен Грэм, Пегги Лу, Сиан Веббер, Мишель Гринидж, Роб Боуэн

Описание:
Более чем через год после того как в него вселился инопланетный симбиот Веном, журналист Эдди Брок пытается приспособиться к новой жизни с суперспособностями и постоянным желанием Венома откусывать людям головы. Брок пытается возродить свою карьеру и берет интервью у серийного убийцы Клетуса Касади, а тот случайно становится хозяином симбиота Карнажа и сбегает из тюрьмы прямо во время собственной казни.

Мировая премьера: 14 сентября 2021


Качество: BDRip 1080p Rip by DD2D3
Формат: MKV
Видео: V_MPEGH/ISO/HEVC; 1920x1040 (1.85:1); 4704 Kbps; 59,940 fps; 0,039 bpp
Аудио: русский; AC3+; 448 Kbps; CBR; 6 ch ||
Навигация по главам: нет



Общее
Уникальный идентификатор : 214376023566164843418494741477409345067 (0xA1475200211E8812881415ABDECACE2B)
Полное имя : D:\Venom Dilogy (2018-2021) BDRip - HEVC 1080p 10 bit 60 FPS\Venom Let There Be Carnage (2021) WEB-DLRip - HEVC 1080p 10 bit 60 FPS.mkv
Формат : Matroska
Версия формата : Version 2
Размер файла : 3,58 Гбайт
Продолжительность : 1 ч. 37 м.
Общий поток : 5 257 Кбит/сек
Название фильма : Rip by from DD2D3
Дата кодирования : UTC 2021-11-27 17:08:45
Программа кодирования : mkvmerge v7.8.0 ('River Man') 32bit built on Apr 3 2015 12:11:22
Библиотека кодирования : libebml v1.3.1 + libmatroska v1.4.2
Attachments : poster

Видео
Идентификатор : 1
Формат : HEVC
Формат/Информация : High Efficiency Video Coding
Профиль формата : Main 10@L4.1@Main
Идентификатор кодека : V_MPEGH/ISO/HEVC
Продолжительность : 1 ч. 37 м.
Битрейт : 4 704 Кбит/сек
Ширина : 1 920 пикселей
Высота : 1 040 пикселей
Соотношение сторон : 1,85:1
Режим частоты кадров : Постоянный
Частота кадров : 59,940 (60000/1001) кадров/сек
Цветовое пространство : YUV
Субдискретизация насыщенности : 4:2:0
Битовая глубина : 10 бит
Бит/(Пиксели*Кадры) : 0.039
Размер потока : 3,21 Гбайт (89%)
Библиотека кодирования : x265 3.5+10-82786fccc:[Windows][GCC 11.1.0][64 bit] 10bit
Настройки программы : cpuid=1111039 / frame-threads=2 / numa-pools=4 / wpp / no-pmode / no-pme / no-psnr / no-ssim / log-level=2 / input-csp=1 / input-res=1920x1040 / interlace=0 / total-frames=350871 / level-idc=41 / high-tier=1 / uhd-bd=0 / ref=3 / no-allow-non-conformance / no-repeat-headers / annexb / no-aud / no-eob / no-eos / no-hrd / info / hash=0 / no-temporal-layers / open-gop / min-keyint=25 / keyint=250 / gop-lookahead=0 / bframes=4 / b-adapt=2 / b-pyramid / bframe-bias=0 / rc-lookahead=20 / lookahead-slices=6 / scenecut=40 / hist-scenecut=0 / radl=0 / no-splice / no-intra-refresh / ctu=64 / min-cu-size=8 / no-rect / no-amp / max-tu-size=32 / tu-inter-depth=1 / tu-intra-depth=1 / limit-tu=0 / rdoq-level=0 / dynamic-rd=0.00 / no-ssim-rd / signhide / no-tskip / nr-intra=0 / nr-inter=0 / no-constrained-intra / strong-intra-smoothing / max-merge=3 / limit-refs=1 / no-limit-modes / me=2 / subme=5 / merange=57 / temporal-mvp / no-frame-dup / no-hme / weightp / no-weightb / no-analyze-src-pics / deblock=0:0 / no-sao / no-sao-non-deblock / rd=3 / selective-sao=0 / early-skip / no-rskip / no-fast-intra / no-tskip-fast / no-cu-lossless / b-intra / no-splitrd-skip / rdpenalty=0 / psy-rd=4.00 / psy-rdoq=0.00 / no-rd-refine / no-lossless / cbqpoffs=0 / crqpoffs=0 / rc=abr / bitrate=4800 / qcomp=0.60 / qpstep=1 / stats-write=0 / stats-read=2 / cplxblur=20.0 / qblur=0.5 / ipratio=1.10 / pbratio=1.00 / aq-mode=0 / aq-strength=0.00 / no-cutree / zone-count=0 / no-strict-cbr / qg-size=64 / rc-grain / qpmax=69 / qpmin=0 / const-vbv / sar=1 / overscan=0 / videoformat=5 / range=0 / colorprim=2 / transfer=2 / colormatrix=2 / chromaloc=0 / display-window=0 / cll=0,0 / min-luma=0 / max-luma=1023 / log2-max-poc-lsb=8 / vui-timing-info / vui-hrd-info / slices=1 / no-opt-qp-pps / no-opt-ref-list-length-pps / no-multi-pass-opt-rps / scenecut-bias=0.05 / hist-threshold=0.03 / no-opt-cu-delta-qp / no-aq-motion / no-hdr10 / no-hdr10-opt / no-dhdr10-opt / no-idr-recovery-sei / analysis-reuse-level=0 / analysis-save-reuse-level=0 / analysis-load-reuse-level=0 / scale-factor=0 / refine-intra=0 / refine-inter=0 / refine-mv=1 / refine-ctu-distortion=0 / no-limit-sao / ctu-info=0 / no-lowpass-dct / refine-analysis-type=0 / copy-pic=1 / max-ausize-factor=1.0 / no-dynamic-refine / no-single-sei / no-hevc-aq / no-svt / no-field / qp-adaptation-range=1.00 / scenecut-aware-qp=0conformance-window-offsets / right=0 / bottom=0 / decoder-max-rate=0 / no-vbv-live-multi-pass
Default : Да
Forced : Нет

Аудио
Идентификатор : 2
Формат : E-AC-3
Формат/Информация : Enhanced AC-3
Коммерческое название : Dolby Digital Plus
Идентификатор кодека : A_EAC3
Продолжительность : 1 ч. 37 м.
Вид битрейта : Постоянный
Битрейт : 448 Кбит/сек
Каналы : 6 каналов
Channel layout : L R C LFE Ls Rs
Частота : 48,0 КГц
Частота кадров : 31,250 кадров/сек (1536 SPF)
Метод сжатия : С потерями
Размер потока : 313 Мбайт (9%)
Заголовок : Дублированный | Кинопоиск HD (СинеЛаб СаундМикс)
Язык : Russian
Service kind : Complete Main
Default : Да
Forced : Да
Statistics Tags Issue : mkvmerge v59.0.0 ('Shining Star') 64-bit 2021-11-24 00:47:59 / mkvmerge v7.8.0 ('River Man') 32bit built on Apr 3 2015 12:11:22 2021-11-27 17:08:45
FromStats_BitRate : 448000
FromStats_Duration : 01:37:20.992000000
FromStats_FrameCount : 182531
FromStats_StreamSize : 327095552

Текст
Идентификатор : 3
Формат : UTF-8
Идентификатор кодека : S_TEXT/UTF8
Идентификатор кодека/Информация : UTF-8 Plain Text
Заголовок : Full
Язык : Russian
Default : Нет
Forced : Нет
Statistics Tags Issue : mkvmerge v59.0.0 ('Shining Star') 64-bit 2021-11-24 00:47:59 / mkvmerge v7.8.0 ('River Man') 32bit built on Apr 3 2015 12:11:22 2021-11-27 17:08:45
FromStats_BitRate : 72
FromStats_Duration : 01:36:04.557000000
FromStats_FrameCount : 1086
FromStats_StreamSize : 51963
скриншот  скриншот  скриншот  


© Оформление by DD2D3


pb.wtf



Скачать Веном Дилогия через торрент http://images.vfl.ru/ii/1638034610/6533c790/36862109.jpg Скачать, смотреть онлайн Веном Дилогия бесплантно в хорошем качестве Описание: Что, если в один прекрасный день в тебя вселится симбиот, который наделит тебя сверхчеловеческими способностями? Вот только Веном ... 10 10 10
Info! Золотая раздача, скачанное не засчитывается.
Торрент: Зарегистрирован [2021-11-27 18:19] · скачан: 26 раз
Статус: √ проверено
Размер: 7.22 GB
Как cкачать? Как скачать Веном Дилогия через торрент | UTorrent

28-11-2019 20:33  

Отключить всю рекламу на сайте

28-11-2021 22:13 Веном Дилогия Скачать торрент  

Супер!!! Вот это подарок!!!
Большое Спасибо dd2d3!
Спасибо от всех любителей 1080pх60fps High&End ваши релизы бомба!
Как всегда помогу с раздачей!


Спасибо Друг, что ты есть!

Best Regards, Your V&S!


p.s раздача оставлена в пользу лучшей
Веном / Venom pb.wtf



    Дорогой пользователь! Огромная просьба, поблагодарите релизера, оцените раздачу и оставьте свои комментарий, если Вы скачали Веном Дилогия через торрент бесплатно!
    Комментировать посты могут только пользователи прошедшие не сложную регистрацию
    Показать сообщения:    

    Веном Дилогия через торрент
    Скачать бесплатно Веном Дилогия
    Веном Дилогия скачать торрент
    Веном Дилогия смотреть онлайн
    Cкачать фильм Веном Дилогия бесплатно
    Веном Дилогия скачать торрент в хорошем качестве
    Веном Дилогия смотреть онлайн бесплатно в хорошем качестве


    Вы не можете начинать темы
    Вы не можете отвечать на сообщения
    Вы не можете редактировать свои сообщения
    Вы не можете удалять свои сообщения
    Вы не можете голосовать в опросах
    Вы не можете прикреплять файлы к сообщениям
    Вы можете скачивать файлы