Всегда рабочее зеркало без VPN и Proxy просто перед .vidak.icu напиши любое слово или цифру, Пример http://62t4.vidak.icu

MVO

Лицензия

1 сезон

1

1 сезон

iTunes

1 сезон

13

1 сезон

Deluxe

pack

Рекомендуем

Пиратка

30

ВАЖНО

RePack

MK11

RePack

jed

RePack

fifa19

RePack

RDR2

RePack

NEED FOR SPEED™ PAYBACK

Кинопоиск HD

6 сезон

 Острые козырьки 6 сезон

Все сериалы

все сериалы на PB.wtf

RePack

FAR CRY 5
  
Magnet ссылка

Последняя дуэль / The Last Duel (Ридли Скотт) [2021, триллер, драма, приключения, WEBRip 1080p] [DUB] (звук с TS) pb.wtf

Последняя дуэль через торрент pb.wtf

Раздают: 1 [ 0 KB/s ]
Размер: 3.97 GB | Добавлен: 7 мес. назад | Торрент скачан:557 раз
Смотреть онлайн Последняя дуэль | Скачать    Ребята, помогите собрать деньги на оплату серверов!!!

30-11-2021 08:22 Последняя дуэль Скачать торрент  

Последняя дуэль / The Last Duel

✦ Год выпуска: 2021
✦ Страна: США, Великобритания
✦ Жанр: История, драма
✦ Продолжительность: 02:31:45
✦ Перевод: Дублированный (звук с TS)
✦ Субтитры: нет

Режиссер: Ридли Скотт

В ролях: Мэтт Дэймон, Адам Драйвер, Джоди Комер, Харриет Уолтер, Бен Аффлек, Алекс Лоутер, Мартон Чокаш, Уильям Хьюстон, Оливер Коттон, Орелиен Лорнье

Описание: Нормандский рыцарь Жан де Карруж по возвращении с войны узнаёт, что его сосед и соперник Жак Ле Гри изнасиловал его жену Маргарит. Однако у Ле Гри обнаружились сильные союзники, словам женщины никто не верит, и Карруж обращается за помощью лично к королю Франции Карлу VI. Заслушав все свидетельства, король постановил, что конфликт должен быть разрешён в честном поединке. От исхода битвы зависит судьба не только Ле Гри и Карружа, но и жены последнего. В случае поражения мужа её должны сжечь на костре за ложные обвинения.

rating

Реклама: Присутствует баннер!

Качество: WEBRip 1080p
Формат: MKV
Видео: AVC/H.264, 1920x800, 3 289 Kbps, 23.976 fps
Аудио: AC3, 48.0 kHz, 2 ch, 384 kb/s
скриншот  скриншот  скриншот  

Общее
Полное имя : D:\Последняя.дуэль.2021.WEB-DLRip.[1080p].NNMClub.mkv
Формат : Matroska
Версия формата : Version 2
Размер файла : 3,97 Гбайт
Продолжительность : 2 ч. 31 м.
Общий поток : 3748 Кбит/сек
Программа кодирования : libmatroska 1.4.1
Библиотека кодирования : SolveigMM Matroska Muxer Version 1.0.2010.29

Видео
Идентификатор : 1
Формат : AVC
Формат/Информация : Advanced Video Codec
Профиль формата : High@L4.1
Настройки формата : CABAC / 4 Ref Frames
Параметр CABAC формата : Да
Параметр RefFrames формата : 4 кадра
Идентификатор кодека : V_MPEG4/ISO/AVC
Продолжительность : 2 ч. 31 м.
Битрейт : 3289 Кбит/сек
Ширина : 1920 пикселей
Высота : 800 пикселей
Соотношение сторон : 2,40:1
Режим частоты кадров : Постоянный
Частота кадров : 23,976 кадра/сек
Цветовое пространство : YUV
Субдискретизация насыщенности : 4:2:0
Битовая глубина : 8 бит
Тип развёртки : Прогрессивная
Бит/(Пиксели*Кадры) : 0.089
Размер потока : 3,49 Гбайт (88%)
Язык : English
Default : Да
Forced : Нет

Аудио
Идентификатор : 2
Формат : AC-3
Формат/Информация : Audio Coding 3
Коммерческое название : Dolby Digital
Идентификатор кодека : A_AC3
Продолжительность : 2 ч. 31 м.
Вид битрейта : Постоянный
Битрейт : 384 Кбит/сек
Каналы : 2 канала
ChannelLayout : L R
Частота : 48,0 КГц
Частота кадров : 31,250 кадров/сек (1536 SPF)
Битовая глубина : 16 бит
Метод сжатия : С потерями
Задержка видео : 11 мс.
Размер потока : 417 Мбайт (10%)
Язык : Russian
ServiceKind/String : Complete Main
Default : Да
Forced : Нет
pb.wtf



Скачать Последняя дуэль через торрент https://i116.fastpic.org/big/2021/1130/b7/9496fce18b5a89dda327a364d7630bb7.jpeg Скачать, смотреть онлайн Последняя дуэль бесплантно в хорошем качестве Описание: Нормандский рыцарь Жан де Карруж по возвращении с войны узнаёт, что его сосед и соперник Жак Ле Гри изнасиловал его жену ... 8.9 10 14
Торрент: Зарегистрирован [2021-11-30 08:22] · скачан: 557 раз
Статус: T временная
Размер: 3.97 GB
Как cкачать? Как скачать Последняя дуэль через торрент | UTorrent

% Раздел Тема Автор DL S | L
Фильмы [HD 720p, 1080p] (Хороший звук DUB, MVO) [ 13.55 GB ] Последняя дуэль / The Last Duel [2021 История BDRip 1080p ] Crmek Скачать
7 | 0
Фильмы 2021 [DVDrip, WEB-DLRip, HDrip] (DUB, MVO) [ 2.18 GB ] Последняя дуэль / The Last Duel [2021 История BDRip] - [ / Невафильм] Twi7ter Скачать
9 | 0
Фильмы 2021 [DVDrip, WEB-DLRip, HDrip] (DUB, MVO) [ 1.46 GB ] Последняя дуэль / The Last Duel [2021 История BDRip] - [ / Невафильм] Twi7ter Скачать
40 | 1
Фильмы 2021 [DVDrip, WEB-DLRip, HDrip] (DUB, MVO) [ 2.82 GB ] Последняя дуэль / The Last Duel [2021 История HDRip-AVC] DUB [Невафильм] от ExKinoRay Lithuania Скачать
3 | 0
Фильмы 2021 [DVDrip, WEB-DLRip, HDrip] (DUB, MVO) [ 3.39 GB ] Последняя дуэль / The Last Duel [2021 История BDRip-AVC] DUB [Невафильм] +2xMVO [Jaskier HDRezka Studio] bober100 Скачать
1 | 0
Фильмы 2021 [DVDrip, WEB-DLRip, HDrip] (DUB, MVO) [ 2.18 GB ] Последняя дуэль / The Last Duel [2021 История BDRip] DUB [Невафильм] bober100 Скачать
3 | 0
Фильмы 2021 [DVDrip, WEB-DLRip, HDrip] (DUB, MVO) [ 1.46 GB ] Последняя дуэль / The Last Duel [2021 История BDRip] DUB [Невафильм] bober100 Скачать
2 | 0

28-11-2019 20:33  

Отключить всю рекламу на сайте

07-01-2022 04:46 Последняя дуэль Скачать торрент  

    Дорогой пользователь! Огромная просьба, поблагодарите релизера, оцените раздачу и оставьте свои комментарий, если Вы скачали Последняя дуэль через торрент бесплатно!
    Комментировать посты могут только пользователи прошедшие не сложную регистрацию
    Показать сообщения:    

    Последняя дуэль через торрент
    Скачать бесплатно Последняя дуэль
    Последняя дуэль скачать торрент
    Последняя дуэль смотреть онлайн
    Cкачать фильм Последняя дуэль бесплатно
    Последняя дуэль скачать торрент в хорошем качестве
    Последняя дуэль смотреть онлайн бесплатно в хорошем качестве


    Вы не можете начинать темы
    Вы не можете отвечать на сообщения
    Вы не можете редактировать свои сообщения
    Вы не можете удалять свои сообщения
    Вы не можете голосовать в опросах
    Вы не можете прикреплять файлы к сообщениям
    Вы можете скачивать файлы