Всегда рабочее зеркало без VPN и Proxy просто перед .vidak.icu напиши любое слово или цифру, Пример http://900m.vidak.icu

Лицензия

MVO

1 сезон

1

1 сезон

iTunes

1 сезон

13

1 сезон

Deluxe

pack

Рекомендуем

Repack

30

ВАЖНО

RePack

MK11

RePack

jed

RePack

fifa19

RePack

RDR2

RePack

NEED FOR SPEED™ PAYBACK

Кинопоиск HD

6 сезон

 Острые козырьки 6 сезон

Все сериалы

все сериалы на PB.wtf

RePack

FAR CRY 5
  
Magnet ссылка

Монстры, созданные человеком / Боевой робот номер 4 / Monsters of Man (Марк Тойя) [2020, Фантастика, боевик, UHD BDRemux 2160p] DUB [Кинопоиск HD] pb.wtf

Монстры, созданные человеком через торрент pb.wtf

Размер: 52.41 GB | Добавлен: 8 мес. назад | Торрент скачан:30 раз
Смотреть онлайн Монстры, созданные человеком | Скачать    Ребята, помогите собрать деньги на оплату серверов!!!

01-12-2021 07:59 Монстры, созданные человеком Скачать торрент  

Монстры, созданные человеком | Боевой робот номер 4
Monsters of Man

Год выпуска: 2020
Страна: Австралия
Студия: 11:11 Entertainment, Hanuman Films, MRT Films Pty Ltd
Жанр: Фантастика, боевик
Продолжительность: 02:11:50
Перевод: Дублированный | Кинопоиск HD
Субтитры: Русские (Forced, full), английские

Режиссер: Марк Тойя

rating

В ролях: Нил МакДонаф, Хосе Росете, Алексис Марьянович, Джессика Блэкмор, Дэвид Хэверти, Конрад Прэтт, Кейли Тран, Джорди Тулленерс, Дэвид Самартин, Тейлор Ли Эдвардс, Бретт Тьютор, Пол Хаапаниеми, Райан Хью, Ли Тай, Ма Райнет

Описание: В далёких джунглях Камбоджи ЦРУ проводит несанкционированные испытания боевых роботов с искусственным интеллектом, созданных частной компанией. Расстреливая банду вооружённых наркоторговцев, андроиды уничтожают и жителей лесной деревни, невольными свидетелями чего становится живущий там же бывший морпех и группа американских студентов-медиков, участвующих в волонтёрской программе. Им удаётся почти без потерь сбежать в джунгли, но ЦРУ свидетели не нужны.

Качество: UHD BDRemux 2160p
Формат: MKV

Видео: 3840x2160 at 23.976 fps, MPEG-H HEVC HDR Video, ~ 50000 kbps avg
Аудио#1: 48 kHz, E-AC3, 5.1, 448 Kbps | Дублированный | Кинопоиск HD | RUS |
Аудио#2: 48 kHz, AC3, 5.1, 448 Kbps | Дублированный | Кинопоиск HD | RUS |
Аудио#3: 48 kHz, DTS-HD MA, 7.1, 6005 Kbps | Оригинал | ENG |
скриншот  скриншот  скриншот  скриншот  скриншот  

General
Unique ID : 151205014635701977486034443932257164308 (0x71C106CB82F979F93E1061D028531C14)
Complete name : E:VideoMonsters.of.Man.2020.BDREMUX.2160p.HDR.seleZen.mkv
Format : Matroska
Format version : Version 4
File size : 52.4 GiB
Duration : 2 h 11 min
Overall bit rate mode : Variable
Overall bit rate : 56.9 Mb/s
Movie name : Monsters of Man 2020 UHD From seleZen
Encoded date : UTC 2021-11-27 12:21:43
Writing application : mkvmerge v59.0.0 ('Shining Star') 64-bit
Writing library : libebml v1.4.2 + libmatroska v1.6.4

Video
ID : 1
Format : HEVC
Format/Info : High Efficiency Video Coding
Format profile : Main [email protected]@High
HDR format : SMPTE ST 2086, HDR10 compatible
Codec ID : V_MPEGH/ISO/HEVC
Duration : 2 h 11 min
Bit rate : 50.0 Mb/s
Width : 3 840 pixels
Height : 2 160 pixels
Display aspect ratio : 16:9
Frame rate mode : Constant
Frame rate : 24.000 FPS
Standard : Component
Color space : YUV
Chroma subsampling : 4:2:0 (Type 2)
Bit depth : 10 bits
Bits/(Pixel*Frame) : 0.251
Stream size : 46.0 GiB (88%)
Language : English
Default : Yes
Forced : No
Color range : Limited
Color primaries : BT.2020
Transfer characteristics : PQ
Matrix coefficients : BT.2020 non-constant
Mastering display color primaries : Display P3
Mastering display luminance : min: 0.0050 cd/m2, max: 1000 cd/m2
Maximum Content Light Level : 996 cd/m2
Maximum Frame-Average Light Level : 269 cd/m2

Audio #1
ID : 2
Format : E-AC-3
Format/Info : Enhanced AC-3
Commercial name : Dolby Digital Plus
Codec ID : A_EAC3
Duration : 2 h 11 min
Bit rate mode : Constant
Bit rate : 448 kb/s
Channel(s) : 6 channels
Channel layout : L R C LFE Ls Rs
Sampling rate : 48.0 kHz
Frame rate : 31.250 FPS (1536 SPF)
Compression mode : Lossy
Stream size : 422 MiB (1%)
Title : Dub
Language : Russian
Service kind : Complete Main
Default : Yes
Forced : Yes

Audio #2
ID : 3
Format : AC-3
Format/Info : Audio Coding 3
Commercial name : Dolby Digital
Codec ID : A_AC3
Duration : 2 h 11 min
Bit rate mode : Constant
Bit rate : 448 kb/s
Channel(s) : 6 channels
Channel layout : L R C LFE Ls Rs
Sampling rate : 48.0 kHz
Frame rate : 31.250 FPS (1536 SPF)
Compression mode : Lossy
Stream size : 422 MiB (1%)
Title : Dub
Language : Russian
Service kind : Complete Main
Default : No
Forced : No

Audio #3
ID : 4
Format : DTS XLL
Format/Info : Digital Theater Systems
Commercial name : DTS-HD Master Audio
Codec ID : A_DTS
Duration : 2 h 11 min
Bit rate mode : Variable
Bit rate : 6 005 kb/s
Channel(s) : 8 channels
Channel layout : C L R LFE Lb Rb Lss Rss
Sampling rate : 48.0 kHz
Frame rate : 93.750 FPS (512 SPF)
Bit depth : 24 bits
Compression mode : Lossless
Stream size : 5.53 GiB (11%)
Title : Original
Language : English
Default : No
Forced : No

Text #1
ID : 5
Format : UTF-8
Codec ID : S_TEXT/UTF8
Codec ID/Info : UTF-8 Plain Text
Duration : 2 h 11 min
Bit rate : 3 b/s
Count of elements : 107
Stream size : 3.80 KiB (0%)
Title : Forced
Language : Russian
Default : Yes
Forced : Yes

Text #2
ID : 6
Format : UTF-8
Codec ID : S_TEXT/UTF8
Codec ID/Info : UTF-8 Plain Text
Duration : 2 h 11 min
Bit rate : 76 b/s
Count of elements : 1925
Stream size : 73.6 KiB (0%)
Title : Full
Language : Russian
Default : No
Forced : No

Text #3
ID : 7
Format : UTF-8
Codec ID : S_TEXT/UTF8
Codec ID/Info : UTF-8 Plain Text
Duration : 2 h 4 min
Bit rate : 43 b/s
Count of elements : 1602
Stream size : 39.8 KiB (0%)
Title : Full
Language : English
Default : No
Forced : No

Menu
00:00:00.000 : Chapter 1
00:15:23.042 : Chapter 2
00:24:40.042 : Chapter 3
00:34:05.458 : Chapter 4
00:42:30.458 : Chapter 5
00:50:46.875 : Chapter 6
01:03:32.375 : Chapter 7
01:13:45.542 : Chapter 8
01:26:40.625 : Chapter 9
01:39:59.250 : Chapter 10
01:51:24.500 : Chapter 11
02:06:16.667 : Chapter 12

pb.wtf



Скачать Монстры, созданные человеком через торрент https://b.radikal.ru/b19/2111/40/701fac65d1ba.jpg Скачать, смотреть онлайн Монстры, созданные человеком бесплантно в хорошем качестве Описание: В далёких джунглях Камбоджи ЦРУ проводит несанкционированные испытания боевых роботов с искусственным интеллектом, созданных ... 8.2 10 5
Торрент: Зарегистрирован [2021-12-01 07:59] · скачан: 30 раз
Статус: √ проверено
Размер: 52.41 GB
Как cкачать? Как скачать Монстры, созданные человеком через торрент | UTorrent

% Раздел Тема Автор DL S | L
Фильмы 2019-2020 [DVDrip, WEB-DLRip, HDrip] (DUB, MVO) [ 3.4 GB ] Боевой робот номер 4 / Монстры созданные человеком / Monsters of Man [2020 НDRip-AVC] DUB [КиноПоиск HD] от ExKinoRay Lithuania Скачать
1 | 0
Фильмы [HD 720p, 1080p] (Хороший звук DUB, MVO) [ 9.45 GB ] Монстры созданные человеком / Боевой робот номер 4 / Monsters of Man [2020 BDRip 1080p] bober100 Скачать
3 | 0
Фильмы [HD 720p, 1080p] (Хороший звук DUB, MVO) [ 4.35 GB ] Монстры созданные человеком / Боевой робот номер 4 / Monsters of Man [2020 BDRip 720p] bober100 Скачать
2 | 0
Фильмы (Blu-ray, BD-Remux, HDDVD) [ 30.75 GB ] Монстры созданные человеком / Боевой робот номер 4 / Monsters of Man [2020 BD Riemux 1080p] bober100 Скачать
1 | 0
Фильмы 2019-2020 [DVDrip, WEB-DLRip, HDrip] (DUB, MVO) [ 1.46 GB ] Монстры созданные человеком / Боевой робот номер 4 / Monsters of Man [2020 BDRip] bober100 Скачать
2 | 0
Фильмы 2019-2020 [DVDrip, WEB-DLRip, HDrip] (DUB, MVO) [ 2.12 GB ] Монстры созданные человеком / Боевой робот номер 4 / Monsters of Man [2020 BDRip] bober100 Скачать
2 | 0

28-11-2019 20:33  

Отключить вcю реклaмy на сайте

    Дорогой пользователь! Огромная просьба, поблагодарите релизера, оцените раздачу и оставьте свои комментарий, если Вы скачали Монстры, созданные человеком через торрент бесплатно!
    Комментировать посты могут только пользователи прошедшие не сложную регистрацию
    Показать сообщения:    

    Монстры, созданные человеком через торрент
    Скачать бесплатно Монстры, созданные человеком
    Монстры, созданные человеком скачать торрент
    Монстры, созданные человеком смотреть онлайн
    Cкачать фильм Монстры, созданные человеком бесплатно
    Монстры, созданные человеком скачать торрент в хорошем качестве
    Монстры, созданные человеком смотреть онлайн бесплатно в хорошем качестве


    Вы не можете начинать темы
    Вы не можете отвечать на сообщения
    Вы не можете редактировать свои сообщения
    Вы не можете удалять свои сообщения
    Вы не можете голосовать в опросах
    Вы не можете прикреплять файлы к сообщениям
    Вы можете скачивать файлы