Доктор Стрэндж

Лицензия

Добыча

MVO

Дом дракона

1 сезон

Тор

Лицензия

Мэверик

Лицензия

Там, где раки поют

MVO

Властелин колец

1 сезон

Ultimate

pack

Рекомендуем

30

Repack

ВАЖНО

ВАЖНО

Ghostwire

RePack

jed

RePack

nioh2

RePack

RDR2

RePack

NEED FOR SPEED™ PAYBACK

RePack

скачать торрент

Кинопоиск HD

Острые козырьки 6 сезон

6 сезон

FAR CRY 6

RePack

скачать торрент

Лицензия

скачать торрент

MVO

1

1 сезон

скачать торрент

1 сезон

скачать торрент

Лицензия

  

Босс-молокосос 2 в 3Д / The Boss Baby: Family Business 3D (Том МакГрат) [2021, Мультфильм, комедия, приключения, семейный, BDRip 1080p, (Half OverUnder)] DUB [Пифагор]

Босс-молокосос 2 в 3Д через торрент pb.wtf

Размер: 8.5 GB | Добавлен: 10 мес. назад | Торрент скачан:40 раз
Смотреть онлайн Босс-молокосос 2 в 3Д | Скачать   

01-12-2021 17:43 Босс-молокосос 2 в 3Д Скачать торрент  

Босс-молокосос 2 в 3Д
The Boss Baby: Family Business 3D

Год выпуска: 2021
Страна: США
Студия: DreamWorks Animation
Жанр: Мультфильм, комедия, приключения, семейный
Продолжительность: 01:47:12
Перевод: Дублированный | Пифагор
Субтитры:
Вшитые (softsub):
#1 - Русские Форсированные (ver. Ash61) (включены по умолчанию)
#2 - Русские Полные (v.1)
#3 - Русские Полные (v.2)
#4 - Украинские Форсированные (ver. Ash61)
#5 - English SDH (BD 3D Kor)

Внешние (UTF-8):
#1 - Русские Форсированные (ver. Ash61) (включены по умолчанию)
#2 - Русские Полные (v.1)
#3 - Украинские Форсированные (ver. Ash61)

Режиссер: Том МакГрат

rating

В ролях: Алек Болдуин, Эми Седарис, Джеймс Марсден, Джефф Голдблюм, Лиза Кудроу, Ева Лонгория, Джеймс МакГрат, Ариана Гринблатт, Джимми Киммел

Описание: Братья Темплтон выросли и отдалились друг от друга. Но все меняется с появлением нового босса-молокососа с суперсовременным подходом, который воссоединяет семью и вдохновляет героев на новые бизнес-свершения.

Качество: BDRip 1080p
Формат: MKV

Видео: AVC / 1920х1080p / 23,976 fps / 10.0 Mbps
Аудио #01: 48 kHz, AC3, 5.1, 448 Kbps | Дублированный | Пифагор | RUS |
Аудио #02: 48 kHz, AC3, 5.1, 448 Kbps | Дублированный | спасибо Hurtom! | UKR |
Аудио #03: 48 kHz, AC3, 5.1, 448 Kbps | Оригинал | ENG |
Формат 3D: Half OverUnder / Вертикальная анаморфная стереопара
Порядок ракурсов: левый ракурс первый
скриншот  скриншот  скриншот  скриншот  скриншот  

General
Unique ID : 190747286525578496508075990948670167036 (0x8F809751DF4FE71AAE31626BC81157FC)
Complete name : D:TheBossBaby2(2021)3D-hOU(Ash61)TheBossBaby2(2021)3D-hOU(Ash61).mkv
Format : Matroska
Format version : Version 2
File size : 8.50 GiB
Duration : 1 h 47 min
Overall bit rate : 11.3 Mb/s
Movie name : Босс-молокосос 2 / The Boss Baby: Family Business (The Boss Baby 2) (2021) in 3D
Encoded date : UTC 2021-11-30 15:17:28
Writing application : mkvmerge v5.8.0 ('No Sleep / Pillow') built on Sep 2 2012 15:37:04
Writing library : libebml v1.2.3 + libmatroska v1.3.0

Video
ID : 1
Format : AVC
Format/Info : Advanced Video Codec
Format profile : [email protected]
Format settings : CABAC / 4 Ref Frames
Format settings, CABAC : Yes
Format settings, Reference : 4 frames
Codec ID : V_MPEG4/ISO/AVC
Duration : 1 h 47 min
Bit rate : 10 000 kb/s
Width : 1 920 pixels
Height : 1 080 pixels
Display aspect ratio : 16:9
Frame rate mode : Constant
Frame rate : 23.976 (24000/1001) FPS
Color space : YUV
Chroma subsampling : 4:2:0
Bit depth : 8 bits
Scan type : Progressive
Bits/(Pixel*Frame) : 0.201
Stream size : 7.32 GiB (86%)
Title : BDRip by Ash61 (source - BD 3D Kor)
Writing library : x264 core 146 r2538 121396c
Encoding settings : cabac=1 / ref=4 / deblock=1:-3:-3 / analyse=0x3:0x113 / me=umh / subme=10 / psy=1 / psy_rd=1.00:0.00 / mixed_ref=1 / me_range=32 / chroma_me=1 / trellis=2 / 8x8dct=1 / cqm=0 / deadzone=21,11 / fast_pskip=0 / chroma_qp_offset=-2 / threads=12 / lookahead_threads=2 / sliced_threads=0 / nr=0 / decimate=0 / interlaced=0 / bluray_compat=0 / constrained_intra=0 / bframes=8 / b_pyramid=2 / b_adapt=2 / b_bias=0 / direct=3 / weightb=1 / open_gop=0 / weightp=2 / keyint=250 / keyint_min=23 / scenecut=40 / intra_refresh=0 / rc_lookahead=60 / rc=2pass / mbtree=0 / bitrate=10000 / ratetol=1.0 / qcomp=0.70 / qpmin=0 / qpmax=69 / qpstep=4 / cplxblur=20.0 / qblur=0.5 / vbv_maxrate=40000 / vbv_bufsize=30000 / nal_hrd=none / filler=0 / frame-packing=4 / ip_ratio=1.40 / pb_ratio=1.30 / aq=1:0.70
Language : English
Default : Yes
Forced : No

Audio #1
ID : 2
Format : AC-3
Format/Info : Audio Coding 3
Commercial name : Dolby Digital
Codec ID : A_AC3
Duration : 1 h 47 min
Bit rate mode : Constant
Bit rate : 448 kb/s
Channel(s) : 6 channels
Channel layout : L R C LFE Ls Rs
Sampling rate : 48.0 kHz
Frame rate : 31.250 FPS (1536 SPF)
Compression mode : Lossy
Stream size : 344 MiB (4%)
Title : Дубляж - Пифагор (Кинопоиск HD)
Language : Russian
Service kind : Complete Main
Default : Yes
Forced : No

Audio #2
ID : 3
Format : AC-3
Format/Info : Audio Coding 3
Commercial name : Dolby Digital
Codec ID : A_AC3
Duration : 1 h 47 min
Bit rate mode : Constant
Bit rate : 448 kb/s
Channel(s) : 6 channels
Channel layout : L R C LFE Ls Rs
Sampling rate : 48.0 kHz
Frame rate : 31.250 FPS (1536 SPF)
Compression mode : Lossy
Stream size : 344 MiB (4%)
Title : Дубляж
Language : Ukrainian
Service kind : Complete Main
Default : No
Forced : No

Audio #3
ID : 4
Format : AC-3
Format/Info : Audio Coding 3
Commercial name : Dolby Digital
Codec ID : A_AC3
Duration : 1 h 47 min
Bit rate mode : Constant
Bit rate : 448 kb/s
Channel(s) : 6 channels
Channel layout : L R C LFE Ls Rs
Sampling rate : 48.0 kHz
Frame rate : 31.250 FPS (1536 SPF)
Compression mode : Lossy
Stream size : 344 MiB (4%)
Title : Original (BD 3D Kor)
Language : English
Service kind : Complete Main
Default : No
Forced : No

Text #1
ID : 5
Format : UTF-8
Codec ID : S_TEXT/UTF8
Codec ID/Info : UTF-8 Plain Text
Title : Форсированные (ver. Ash61)
Language : Russian
Default : Yes
Forced : No

Text #2
ID : 6
Format : UTF-8
Codec ID : S_TEXT/UTF8
Codec ID/Info : UTF-8 Plain Text
Title : Полные (v.1)
Language : Russian
Default : No
Forced : No

Text #3
ID : 7
Format : UTF-8
Codec ID : S_TEXT/UTF8
Codec ID/Info : UTF-8 Plain Text
Title : Полные (v.2)
Language : Russian
Default : No
Forced : No

Text #4
ID : 8
Format : UTF-8
Codec ID : S_TEXT/UTF8
Codec ID/Info : UTF-8 Plain Text
Title : Форсированные (ver. Ash61)
Language : Ukrainian
Default : No
Forced : No

Text #5
ID : 9
Format : UTF-8
Codec ID : S_TEXT/UTF8
Codec ID/Info : UTF-8 Plain Text
Title : SDH (BD 3D Kor)
Language : English
Default : No
Forced : No

Menu
00:00:00.000 : :1
00:04:18.383 : :2
00:09:50.673 : :3
00:13:43.364 : :4
00:19:51.816 : :5
00:24:55.119 : :6
00:29:12.125 : :7
00:34:22.018 : :8
00:38:09.245 : :9
00:44:36.299 : :10
00:51:25.124 : :11
01:00:47.853 : :12
01:04:54.474 : :13
01:08:08.209 : :14
01:13:27.403 : :15
01:18:38.172 : :16
01:22:44.418 : :17
01:27:13.437 : :18
01:35:06.701 : :19
01:38:13.721 : :20




Скачать Босс-молокосос 2 в 3Д через торрент https://c.radikal.ru/c26/2112/12/db136063ebf9.png Скачать, смотреть онлайн Босс-молокосос 2 в 3Д бесплантно в хорошем качестве Описание: Братья Темплтон выросли и отдалились друг от друга. Но все меняется с появлением нового босса-молокососа с суперсовременным ... 10 10 4
Торрент: Зарегистрирован [2021-12-01 17:43] · скачан: 40 раз
Статус: √ проверено
Размер: 8.5 GB
Как cкачать? Как скачать Босс-молокосос 2 в 3Д через торрент | UTorrent

28-11-2019 20:33  

Отключить вcю реклaмy на сайте

    Дорогой пользователь! Огромная просьба, поблагодарите релизера, оцените раздачу и оставьте свои комментарий, если Вы скачали Босс-молокосос 2 в 3Д через торрент бесплатно!!
    Комментировать посты могут только пользователи прошедшие не сложную регистрацию
    Показать сообщения:    


    Босс-молокосос 2 в 3Д через торрент
    Скачать бесплатно Босс-молокосос 2 в 3Д
    Босс-молокосос 2 в 3Д скачать торрент
    Босс-молокосос 2 в 3Д смотреть онлайн
    Cкачать фильм Босс-молокосос 2 в 3Д бесплатно
    Босс-молокосос 2 в 3Д скачать торрент в хорошем качестве
    Босс-молокосос 2 в 3Д смотреть онлайн бесплатно в хорошем качестве
    Вы не можете начинать темы
    Вы не можете отвечать на сообщения
    Вы не можете редактировать свои сообщения
    Вы не можете удалять свои сообщения
    Вы не можете голосовать в опросах
    Вы не можете прикреплять файлы к сообщениям
    Вы можете скачивать файлы