Всегда рабочее зеркало без VPN и Proxy просто перед .vidak.icu напиши любое слово или цифру, Пример http://i3o5.vidak.icu

MVO

2 сезон

1 сезон

1

1 сезон

iTunes

2 сезон

13

1 сезон

Распродажа

pack

Рекомендуем

Пиратка

30

ВАЖНО

RePack

MK11

RePack

jed

RePack

fifa19

RePack

RDR2

RePack

NEED FOR SPEED™ PAYBACK

Кинопоиск HD

6 сезон

 Острые козырьки 6 сезон

Все сериалы

все сериалы на PB.wtf

RePack

FAR CRY 5

Anonymous, нам критически не хватает 5601 руб. на оплату серверов и переферии за Апрель, помоги нам пожалуйста, вся надежда только на тебя. В благодарность мы отключим тебе всю рекламу на сайте!

×
  
Magnet ссылка

Влacть пса / The Power of the Dog (Джейн Кэмпион) [2021, драма, мелодрама, вестерн, WEB-DLRip-AVC] DUB [Netflix] от ExKinoRay pb.wtf

Влacть пса через торрент pb.wtf

Раздают: 1 [ 0 KB/s ]
Размер: 2.47 GB | Добавлен: 5 мес. 20 д. назад | Торрент скачан:42 раза
Смотреть онлайн Влacть пса | Скачать    Ребята, помогите собрать деньги на оплату серверов!!!

01-12-2021 17:53 Влacть пса Скачать торрент  


Влacть пса / The Power of the Dog
Информация о фильме:
Название: Влacть пса
Оригинальное название: The Power of the Dog
Год выхода: 2021
Жанр: драма, мелодрама, вестерн
Режиссер: Джейн Кэмпион

В ролях: Бенедикт Камбербэтч, Кирстен Данст, Джесси Племонс, Коди Смит-Макфи, Томасин МакКензи, Женевьева Лемон, Кит Кэрредин, Фрэнсис Конрой, Питер Кэрролл, Элисон Брюс, Шон Кинэн, Адам Бич

Описание: Братья Фил и Джордж — владельцы крупнейшего ранчо Монтаны. Несмотря на родство, братья мало похожи друг на друга. Фил отличается умом и жесткостью, а Джордж — добротой и любовью к порядку. Когда Фил узнаёт, что Джордж тайно женился на местной вдове Роуз, он решает использовать её сына Питера, чтобы уничтожить их брак.



Страна: Великобритания, Австралия, США, Канада, Новая Зеландия
Студия: BBC Films, Brightstar, Cross City Films, Max Films International, New Zealand Film Commission, See-Saw Films
Продолжительность: 02:08:42
Перевод: Дублированный - Пифагор



Информация о файле:
Кодек: AVC
Формат: MKV
Качество: WEB-DLRip-AVC
Видео: MPEG-4 AVC, 1024x448, 24.000 fps, 1850 kbps
Аудио RU: AC3, 6 ch, 48 kHz, 448 kbps
Аудио EN: AC3, 6 ch, 48 kHz, 448 kbps
Субтитры: Русские (Forced, Full), английские (SDH), немецкие, испанские, французские, иврит, итальянские, португальские, румынские, украинские

x264 info: frame I:1070 Avg QP:12.80 size: 54923
x264 info: frame P:38062 Avg QP:14.46 size: 22740
x264 info: frame B:146208 Avg QP:16.00 size: 5704
x264 info: consecutive B-frames: 1.5% 2.1% 8.2% 12.1% 15.3% 52.6% 3.3% 0.9% 1.1% 0.8% 2.1%
General
Unique ID : 300276873915935328283839288634848445174 (0xE1E738E9302BA48EA5D311A4D7B602F6)
Complete name : D:uTorrentРипы wolf1245The.Power.of.the.Dog.2021.DUB.PIFAGOR.WEB-DLRip-AVC.[wolf1245.ExKinoRay].mkv
Format : Matroska
Format version : Version 4
File size : 2.47 GiB
Duration : 2 h 8 min
Overall bit rate : 2 747 kb/s
Movie name : The.Power.of.the.Dog.2021.DUB.PIFAGOR.WEB-DLRip-AVC.[wolf1245.ExKinoRay]
Encoded date : UTC 2021-12-01 17:41:45
Writing application : mkvmerge v63.0.0 ('Everything') 64-bit
Writing library : libebml v1.4.2 + libmatroska v1.6.4
Video
ID : 1
Format : AVC
Format/Info : Advanced Video Codec
Format profile : High@L4.1
Format settings : CABAC / 12 Ref Frames
Format settings, CABAC : Yes
Format settings, Reference frames : 12 frames
Codec ID : V_MPEG4/ISO/AVC
Duration : 2 h 8 min
Bit rate : 1 850 kb/s
Width : 1 024 pixels
Height : 448 pixels
Display aspect ratio : 2.25:1
Frame rate mode : Constant
Frame rate : 24.000 FPS
Color space : YUV
Chroma subsampling : 4:2:0
Bit depth : 8 bits
Scan type : Progressive
Bits/(Pixel*Frame) : 0.168
Stream size : 1.66 GiB (67%)
Writing library : x264 core 161 r3020 d198931
Encoding settings : cabac=1 / ref=12 / deblock=1:-2:-2 / analyse=0x3:0x133 / me=umh / subme=10 / psy=1 / psy_rd=1.05:0.15 / mixed_ref=1 / me_range=48 / chroma_me=1 / trellis=2 / 8x8dct=1 / cqm=0 / deadzone=21,11 / fast_pskip=1 / chroma_qp_offset=-3 / threads=10 / lookahead_threads=2 / sliced_threads=0 / nr=0 / decimate=0 / interlaced=0 / bluray_compat=0 / constrained_intra=0 / bframes=10 / b_pyramid=2 / b_adapt=2 / b_bias=0 / direct=3 / weightb=1 / open_gop=0 / weightp=2 / keyint=240 / keyint_min=24 / scenecut=40 / intra_refresh=0 / rc_lookahead=60 / rc=2pass / mbtree=0 / bitrate=1850 / ratetol=1.0 / qcomp=0.60 / qpmin=0 / qpmax=69 / qpstep=4 / cplxblur=20.0 / qblur=0.5 / vbv_maxrate=50000 / vbv_bufsize=62500 / nal_hrd=none / filler=0 / ip_ratio=1.40 / pb_ratio=1.30 / aq=3:0.80
Language : English
Default : Yes
Forced : No
Audio #1
ID : 2
Format : AC-3
Format/Info : Audio Coding 3
Commercial name : Dolby Digital
Codec ID : A_AC3
Duration : 2 h 8 min
Bit rate mode : Constant
Bit rate : 448 kb/s
Channel(s) : 6 channels
Channel layout : L R C LFE Ls Rs
Sampling rate : 48.0 kHz
Frame rate : 31.250 FPS (1536 SPF)
Compression mode : Lossy
Stream size : 412 MiB (16%)
Title : DUB | PIFAGOR
Language : Russian
Service kind : Complete Main
Default : Yes
Forced : No
Audio #2
ID : 3
Format : AC-3
Format/Info : Audio Coding 3
Commercial name : Dolby Digital
Codec ID : A_AC3
Duration : 2 h 8 min
Bit rate mode : Constant
Bit rate : 448 kb/s
Channel(s) : 6 channels
Channel layout : L R C LFE Ls Rs
Sampling rate : 48.0 kHz
Frame rate : 31.250 FPS (1536 SPF)
Compression mode : Lossy
Stream size : 412 MiB (16%)
Title : Original
Language : English
Service kind : Complete Main
Default : Yes
Forced : No
Text #1
ID : 4
Format : UTF-8
Codec ID : S_TEXT/UTF8
Codec ID/Info : UTF-8 Plain Text
Duration : 2 h 5 min
Bit rate : 1 b/s
Count of elements : 29
Stream size : 1.45 KiB (0%)
Title : Forced
Language : Russian
Default : Yes
Forced : No
Text #2
ID : 5
Format : UTF-8
Codec ID : S_TEXT/UTF8
Codec ID/Info : UTF-8 Plain Text
Duration : 2 h 5 min
Bit rate : 42 b/s
Count of elements : 871
Stream size : 38.7 KiB (0%)
Language : Russian
Default : No
Forced : No
Text #3
ID : 6
Format : UTF-8
Codec ID : S_TEXT/UTF8
Codec ID/Info : UTF-8 Plain Text
Duration : 2 h 5 min
Bit rate : 23 b/s
Count of elements : 869
Stream size : 21.9 KiB (0%)
Language : German
Default : No
Forced : No
Text #4
ID : 7
Format : UTF-8
Codec ID : S_TEXT/UTF8
Codec ID/Info : UTF-8 Plain Text
Duration : 2 h 4 min
Bit rate : 37 b/s
Count of elements : 1246
Stream size : 34.6 KiB (0%)
Title : SDH
Language : English
Default : No
Forced : No
Text #5
ID : 8
Format : UTF-8
Codec ID : S_TEXT/UTF8
Codec ID/Info : UTF-8 Plain Text
Duration : 2 h 5 min
Bit rate : 24 b/s
Count of elements : 886
Stream size : 22.8 KiB (0%)
Title : European
Language : Spanish
Default : No
Forced : No
Text #6
ID : 9
Format : UTF-8
Codec ID : S_TEXT/UTF8
Codec ID/Info : UTF-8 Plain Text
Duration : 2 h 5 min
Bit rate : 26 b/s
Count of elements : 856
Stream size : 24.0 KiB (0%)
Language : French
Default : No
Forced : No
Text #7
ID : 10
Format : UTF-8
Codec ID : S_TEXT/UTF8
Codec ID/Info : UTF-8 Plain Text
Duration : 2 h 5 min
Bit rate : 41 b/s
Count of elements : 884
Stream size : 37.9 KiB (0%)
Language : Hebrew
Default : No
Forced : No
Text #8
ID : 11
Format : UTF-8
Codec ID : S_TEXT/UTF8
Codec ID/Info : UTF-8 Plain Text
Duration : 2 h 5 min
Bit rate : 22 b/s
Count of elements : 865
Stream size : 21.0 KiB (0%)
Language : Italian
Default : No
Forced : No
Text #9
ID : 12
Format : UTF-8
Codec ID : S_TEXT/UTF8
Codec ID/Info : UTF-8 Plain Text
Duration : 2 h 5 min
Bit rate : 24 b/s
Count of elements : 865
Stream size : 22.9 KiB (0%)
Title : Brazilian
Language : Portuguese
Default : No
Forced : No
Text #10
ID : 13
Format : UTF-8
Codec ID : S_TEXT/UTF8
Codec ID/Info : UTF-8 Plain Text
Duration : 2 h 5 min
Bit rate : 28 b/s
Count of elements : 839
Stream size : 26.1 KiB (0%)
Language : Romanian
Default : No
Forced : No
Text #11
ID : 14
Format : UTF-8
Codec ID : S_TEXT/UTF8
Codec ID/Info : UTF-8 Plain Text
Duration : 2 h 5 min
Bit rate : 41 b/s
Count of elements : 857
Stream size : 38.0 KiB (0%)
Language : Ukrainian
Default : No
Forced : No
Релиз от:
Автор релиза:
pb.wtf



Скачать Влacть пса через торрент https://i4.imageban.ru/out/2021/12/01/b55c03016d4df3a12b3b1e44cfa296c2.jpg Скачать, смотреть онлайн Влacть пса бесплантно в хорошем качестве Описание: Братья Фил и Джордж — владельцы крупнейшего ранчо Монтаны. Несмотря на родство, братья мало похожи друг на друга. Фил ... 10 10 2
Торрент: Зарегистрирован [2021-12-01 17:53] · скачан: 42 раз
Статус: √ проверено
Размер: 2.47 GB
Как cкачать? Как скачать Влacть пса через торрент | UTorrent

28-11-2019 20:33  

Отключить всю рекламу на сайте

    Дорогой пользователь! Огромная просьба, поблагодарите релизера, оцените раздачу и оставьте свои комментарий, если Вы скачали Влacть пса через торрент бесплатно!
    Комментировать посты могут только пользователи прошедшие не сложную регистрацию
    Показать сообщения:    

    Влacть пса через торрент
    Скачать бесплатно Влacть пса
    Влacть пса скачать торрент
    Влacть пса смотреть онлайн
    Cкачать фильм Влacть пса бесплатно
    Влacть пса скачать торрент в хорошем качестве
    Влacть пса смотреть онлайн бесплатно в хорошем качестве


    Вы не можете начинать темы
    Вы не можете отвечать на сообщения
    Вы не можете редактировать свои сообщения
    Вы не можете удалять свои сообщения
    Вы не можете голосовать в опросах
    Вы не можете прикреплять файлы к сообщениям
    Вы можете скачивать файлы