Всегда рабочее зеркало без VPN и Proxy просто перед .vidak.icu напиши любое слово или цифру, Пример http://tzed.vidak.icu

MVO

2 сезон

1 сезон

1

1 сезон

iTunes

2 сезон

13

1 сезон

Распродажа

pack

Рекомендуем

Пиратка

30

ВАЖНО

RePack

MK11

RePack

jed

RePack

fifa19

RePack

RDR2

RePack

NEED FOR SPEED™ PAYBACK

Кинопоиск HD

6 сезон

 Острые козырьки 6 сезон

Все сериалы

все сериалы на PB.wtf

RePack

FAR CRY 5

Anonymous, нам критически не хватает 5601 руб. на оплату серверов и переферии за Апрель, помоги нам пожалуйста, вся надежда только на тебя. В благодарность мы отключим тебе всю рекламу на сайте!

×
  
Magnet ссылка

Ваша честь / Сезон: 1 / Серии: 1-8 из 8 (Константин Статский) [2021, Триллер, драма, криминал, WEBRip 1080p] pb.wtf

Ваша честь через торрент pb.wtf

Раздают: 4 [ 60 KB/s ] Качают: 1 [ 0 KB/s ]
Размер: 16.22 GB | Добавлен: 3 мес. 28 д. назад | Торрент скачан:281 раз
Смотреть онлайн Ваша честь | Скачать    Ребята, помогите собрать деньги на оплату серверов!!!

02-12-2021 09:14 Ваша честь Скачать торрент  

Ваша честь
Год выпуска: 2021
Страна: Россия
Выпущено: Star Media Vision
Жанр: Триллер, драма, криминал
Продолжительность: ~ 01:00:00 серия
Перевод: Не требуется
Субтитры: отсутствуют

Режиссер: Константин Статский



В ролях: Олег Меньшиков, Владислав Миллер, Ольга Тумайкина, Дарья Урсуляк, Ростислав Бершауэр, Дмитрий Тополь, Лира Айларова, Сослан Фидаров, Кристина Кучеренко, Алексей Гаврилов, Алексей Серебряков, Кристина Веденеева, Гио Пика, Марат Гудиев, Виктория Полторак, Даниил Воробьёв, Сахат Дурсунов, Ирина Розанова, Хасбулат Татаров, Сергей Двойников, Инна Степанова, Игорь Черневич, Константин Быков, Роза Шмуклер

Описание: Михаил Романов — судья в районном суде приморского города. Романов славится своей принципиальностью и неподкупностью: закон и справедливость для него превыше всего. Однажды он узнает, что его сын Антон попал в беду. Он без спросу взял машину и сбил на ней мотоциклиста, после чего скрылся с места преступления. Романов без колебаний решает отвезти сына в полицию: он должен признаться и понести наказание. Но вскоре выясняется, что сбитый мотоциклист — Даниил Разин, сын одного из самых опасных криминальных авторитетов города, которого он собственноручно отправил за решетку год назад. Романов понимает, что признаться в аварии — означает обречь Антона на верную гибель. Сможет ли судья спасти сына и на какие жертвы он готов пойти ради этого?

Качество: WEBRip 1080p
Формат: MKV

Видео: MPEG-4 AVC, ~ 6000 Кбит/с, 1920x804
Аудио: 48.0 kHz, AC3 Dolby Digital, 2/0 (L,R) ch, ~ 192 kbps
скриншот  скриншот  скриншот  скриншот  

Общее
Уникальный идентификатор : 145479032806044233925155146291850280976 (0x6D723E18292DAD8F9BE5A69E8DE88010)
Полное имя : D:Vasha.chest.2021.WEB-DL.1080pVasha.chest.E01.2021.WEB-DL.1080p.mkv
Формат : Matroska
Версия формата : Version 4
Размер файла : 2,57 Гбайт
Продолжительность : 59 м. 23 с.
Общий поток : 6 195 Кбит/сек
Название фильма : Vasha.chest.E01.2021.WEB-DL.1080p
Дата кодирования : UTC 2021-12-02 08:54:48
Программа кодирования : mkvmerge v56.1.0 ('My Friend') 64-bit
Библиотека кодирования : libebml v1.4.2 + libmatroska v1.6.4
Attachments : poster.jpg

Видео
Идентификатор : 1
Формат : AVC
Формат/Информация : Advanced Video Codec
Профиль формата : High@L4.1
Настройки формата : CABAC / 4 Ref Frames
Параметр CABAC формата : Да
Параметр RefFrames формата : 4 кадра
Идентификатор кодека : V_MPEG4/ISO/AVC
Продолжительность : 59 м. 23 с.
Битрейт : 6 000 Кбит/сек
Ширина : 1 920 пикселей
Высота : 804 пикселя
Соотношение сторон : 2,40:1
Режим частоты кадров : Постоянный
Частота кадров : 25,000 кадров/сек
Цветовое пространство : YUV
Субдискретизация насыщенности : 4:2:0
Битовая глубина : 8 бит
Тип развёртки : Прогрессивная
Бит/(Пиксели*Кадры) : 0.155
Размер потока : 2,49 Гбайт (97%)
Библиотека кодирования : x264 core 157 r2935 545de2f
Настройки программы : cabac=1 / ref=2 / deblock=1:-1:-1 / analyse=0x3:0x113 / me=hex / subme=6 / psy=1 / psy_rd=1.00:0.15 / mixed_ref=1 / me_range=16 / chroma_me=1 / trellis=1 / 8x8dct=1 / cqm=0 / deadzone=21,11 / fast_pskip=1 / chroma_qp_offset=-3 / threads=25 / lookahead_threads=4 / sliced_threads=0 / nr=0 / decimate=1 / interlaced=0 / bluray_compat=0 / constrained_intra=0 / bframes=3 / b_pyramid=2 / b_adapt=1 / b_bias=0 / direct=1 / weightb=1 / open_gop=0 / weightp=1 / keyint=50 / keyint_min=25 / scenecut=40 / intra_refresh=0 / rc_lookahead=30 / rc=2pass / mbtree=1 / bitrate=6000 / ratetol=1.0 / qcomp=0.60 / qpmin=0 / qpmax=69 / qpstep=4 / cplxblur=20.0 / qblur=0.5 / vbv_maxrate=62500 / vbv_bufsize=78125 / nal_hrd=none / filler=0 / ip_ratio=1.40 / aq=1:1.00
Default : Да
Forced : Нет
Цветовой диапазон : Limited
Основные цвета : BT.709
Характеристики трансфера : BT.709
Коэффициенты матрицы : BT.709

Аудио
Идентификатор : 2
Формат : AC-3
Формат/Информация : Audio Coding 3
Коммерческое название : Dolby Digital
Идентификатор кодека : A_AC3
Продолжительность : 59 м. 23 с.
Вид битрейта : Постоянный
Битрейт : 192 Кбит/сек
Каналы : 2 канала
Channel layout : L R
Частота : 48,0 КГц
Частота кадров : 31,250 кадров/сек (1536 SPF)
Метод сжатия : С потерями
Задержка видео : -80 мс.
Размер потока : 81,6 Мбайт (3%)
Service kind : Complete Main
Default : Да
Forced : Нет

Внимание! Раздача ведётся путём добавления новых серий; при каждом добавлении создаётся новый торрент.
Чтобы начать докачку новой серии, пользователям необходимо сделать следующее:
1. Остановить скачивание;
2. Удалить старый торрент у себя из клиента (старые серии удалять не надо);
3. Скачать новый торрент и запустить его у себя в клиенте вместо старого, при этом указать клиенту путь в старую папку куда и должно происходить скачивание новых серий. Ваш клиент при этом должен произвести хеширование (проверку) старой папки и будет докачивать только те серии, которых у вас ещё нет. Старые серии при этом не удаляются, а продолжают раздаваться! Eсли вы уже удалили старые серии, то предотвратить повторную закачку старых серий можно, отжав галочку в соответствующих местах при запуске нового торрента.

pb.wtf



Скачать Ваша честь через торрент https://a.radikal.ru/a38/2112/17/d417d68063eb.jpg Скачать, смотреть онлайн Ваша честь бесплантно в хорошем качестве Описание: Михаил Романов — судья в районном суде приморского города. Романов славится своей принципиальностью и неподкупностью: закон и ... 8.8 10 16
Торрент: Зарегистрирован [2022-01-27 16:05] · скачан: 281 раз
Статус: √ проверено
Размер: 16.22 GB
Как cкачать? Как скачать Ваша честь через торрент | UTorrent

% Раздел Тема Автор DL S | L
Наши сериалы [ 6.2 GB ] Ваша честь / Сезон: 1 / Серии: 1-8 из 8 [2021 WEBRip] bober100 Скачать
6 | 1
Наши сериалы [ 5.52 GB ] Ваша честь / Сезон: 1 / Серии: 1-8 из 8 [2021 WEBRip-AVC] bober100 Скачать
5 | 0


Последний раз редактировалось: bober100 (2022-01-27 16:05), всего редактировалось 10 раз(а)

28-11-2019 20:33  

Отключить всю рекламу на сайте

02-12-2021 09:18 Ваша честь Скачать торрент  

Что нибудь свое уже начнут снимать? опять у америкосов заимствовали сериалpb.wtf



02-12-2021 14:55 Ваша честь Скачать торрент  

За Серебрякова стыдно уже,свалил на пмж в Канаду,требует больше 400000тыс в день за сьемки и снимается в ремейкахpb.wtf



10-12-2021 13:52 Ваша честь Скачать торрент  

сп здил и ушел-называется-нашелpb.wtf



26-01-2022 13:12 Ваша честь Скачать торрент  

gogi писал(а):

За Серебрякова стыдно уже,свалил на пмж в Канаду,требует больше 400000тыс в день за сьемки и снимается в ремейках

Почему стыдно?Ну не лижет человек нынешним властям жопу , поэтому вынужден жить в Канаде, каждый живет там где лучше. А за свой труд тоже в праве просить столько ,во сколько его оценивает.И если ему эти деньги платят значит он этого стоит.pb.wtf



27-01-2022 17:01 Ваша честь Скачать торрент  

Рейтинг сериала оправдан.Очень понравился,как говорится "на одном дыхании".pb.wtf



17-05-2022 18:57 Ваша честь Скачать торрент  

ребята, станьте на раздачуpb.wtf



    Дорогой пользователь! Огромная просьба, поблагодарите релизера, оцените раздачу и оставьте свои комментарий, если Вы скачали Ваша честь через торрент бесплатно!
    Комментировать посты могут только пользователи прошедшие не сложную регистрацию
    Показать сообщения:    

    Ваша честь через торрент
    Скачать бесплатно Ваша честь
    Ваша честь скачать торрент
    Ваша честь смотреть онлайн
    Cкачать фильм Ваша честь бесплатно
    Ваша честь скачать торрент в хорошем качестве
    Ваша честь смотреть онлайн бесплатно в хорошем качестве


    Вы не можете начинать темы
    Вы не можете отвечать на сообщения
    Вы не можете редактировать свои сообщения
    Вы не можете удалять свои сообщения
    Вы не можете голосовать в опросах
    Вы не можете прикреплять файлы к сообщениям
    Вы можете скачивать файлы