Всегда рабочее зеркало без VPN и Proxy просто перед .vidak.icu напиши любое слово или цифру, Пример http://fbiu.vidak.icu

MVO

2 сезон

2 сезон

1

1 сезон

iTunes

2 сезон

13

1 сезон

Распродажа

pack

Рекомендуем

Пиратка

30

ВАЖНО

RePack

MK11

RePack

jed

RePack

fifa19

RePack

RDR2

RePack

NEED FOR SPEED™ PAYBACK

Кинопоиск HD

6 сезон

 Острые козырьки 6 сезон

Все сериалы

все сериалы на PB.wtf

RePack

FAR CRY 5

Anonymous, нам критически не хватает 5601 руб. на оплату серверов и переферии за Апрель, помоги нам пожалуйста, вся надежда только на тебя. В благодарность мы отключим тебе всю рекламу на сайте!

×
  
Magnet ссылка

Красотка на взводе / Jolt (Таня Уэкслер) [2021, Боевик, комедия, HDRip-AVC] DUB, MVO [Кинопоиск HD, HDRezka Studio] от ExKinoRay pb.wtf

Красотка на взводе через торрент pb.wtf

Размер: 2.5 GB | Добавлен: 5 мес. 14 д. назад | Торрент скачан:137 раз
Смотреть онлайн Красотка на взводе | Скачать    Ребята, помогите собрать деньги на оплату серверов!!!

03-12-2021 19:00 Красотка на взводе Скачать торрент  


Красотка на взводе / Jolt
Информация о фильме:
Название: Красотка на взводе
Оригинальное название: Jolt
Год выхода: 2021
Жанр: Боевик, комедия
Режиссер: Таня Уэкслер

В ролях: Кейт Бекинсейл, Лаверн Кокс, Стэнли Туччи, Бобби Каннавале, Джай Кортни, Сьюзен Сарандон, Константин Грегори, Ори Феффер, Дэвид Брэдли, Льюис Иэн Брэй

Описание: Вышибала Линди плохо умеет управлять собственным гневом и постоянно боится кого-то убить в приступе ярости. В качестве самоконтроля она носит специальный жилет, который бьёт её током и успокаивает, прежде чем она совершит необратимое. Но после смерти возлюбленного Линди вынуждена забыть о контроле и отправиться на поиски убийцы.



Страна: США
Студия: Busted Shark Productions, Campbell Grobman Films, Eclectic Pictures Inc., Jolt Productions, Millennium Films, Nu Boyana Film Studios
Продолжительность: 01:31:14
Перевод: Дублированный - Мосфильм-Мастер | Кинопоиск HD , Профессиональный (многоголосый, закадровый) - HDRezka Studio



Информация о файле:
Кодек: AVC
Формат: MKV
Качество: HDRip-AVC
Видео: MPEG-4 AVC, 1024x428, 24.000 fps, 1750 kbps
Аудио RU: AC3, 6 ch, 48 kHz, 384 kbps | DUB
Аудио RU: AC3, 6 ch, 48 kHz, 384 kbps | HDRezka Studio | с цензурой
Аудио RU: AC3, 6 ch, 48 kHz, 384 kbps | HDRezka Studio | без цкезуры
Аудио EN: AC3, 6 ch, 48 kHz, 448 kbps
Аудио UKR: AC3, 6 ch, 48 kHz, 384 kbps
Субтитры: Русские (форсированные, полные), английские (полные, SDH)

x264 info: frame I:1452 Avg QP:12.56 size: 66953
x264 info: frame P:30204 Avg QP:15.72 size: 19251
x264 info: frame B:99738 Avg QP:17.29 size: 5190
x264 info: consecutive B-frames: 3.3% 4.0% 10.2% 19.3% 16.1% 35.8% 5.2% 1.4% 1.4% 1.1% 2.3%
General
Unique ID : 107647123311039013716655882379654032711 (0x50FC14F23BBC8E58331ADEC536876D47)
Complete name : D:uTorrentРипы wolf1245Jolt.2021.DUB.MVO.HDRip-AVC.[wolf1245.ExKinoRay].mkv
Format : Matroska
Format version : Version 4
File size : 2.50 GiB
Duration : 1 h 31 min
Overall bit rate : 3 927 kb/s
Movie name : Jolt.2021.DUB.MVO.HDRip-AVC.[wolf1245.ExKinoRay]
Encoded date : UTC 2021-12-03 18:21:07
Writing application : mkvmerge v63.0.0 ('Everything') 64-bit
Writing library : libebml v1.4.2 + libmatroska v1.6.4
Cover : Yes
Attachments : cover.jpg
Video
ID : 1
Format : AVC
Format/Info : Advanced Video Codec
Format profile : High@L4.1
Format settings : CABAC / 12 Ref Frames
Format settings, CABAC : Yes
Format settings, Reference frames : 12 frames
Codec ID : V_MPEG4/ISO/AVC
Duration : 1 h 31 min
Bit rate : 1 750 kb/s
Width : 1 024 pixels
Height : 428 pixels
Display aspect ratio : 2.40:1
Frame rate mode : Constant
Frame rate : 24.000 FPS
Color space : YUV
Chroma subsampling : 4:2:0
Bit depth : 8 bits
Scan type : Progressive
Bits/(Pixel*Frame) : 0.166
Stream size : 1.11 GiB (45%)
Title : -=[wolf1245.ExKinoRay]=-
Writing library : x264 core 161 r3020 d198931
Encoding settings : cabac=1 / ref=12 / deblock=1:-3:-3 / analyse=0x3:0x133 / me=umh / subme=11 / psy=1 / psy_rd=1.02:0.05 / mixed_ref=1 / me_range=48 / chroma_me=1 / trellis=2 / 8x8dct=1 / cqm=0 / deadzone=21,11 / fast_pskip=1 / chroma_qp_offset=-3 / threads=10 / lookahead_threads=2 / sliced_threads=0 / nr=0 / decimate=0 / interlaced=0 / bluray_compat=0 / constrained_intra=0 / bframes=10 / b_pyramid=2 / b_adapt=2 / b_bias=0 / direct=3 / weightb=1 / open_gop=0 / weightp=2 / keyint=240 / keyint_min=24 / scenecut=40 / intra_refresh=0 / rc_lookahead=60 / rc=2pass / mbtree=0 / bitrate=1750 / ratetol=1.0 / qcomp=0.60 / qpmin=0 / qpmax=69 / qpstep=4 / cplxblur=20.0 / qblur=0.5 / vbv_maxrate=50000 / vbv_bufsize=62500 / nal_hrd=none / filler=0 / ip_ratio=1.40 / pb_ratio=1.30 / aq=1:0.80
Language : German
Default : Yes
Forced : No
Audio #1
ID : 2
Format : AC-3
Format/Info : Audio Coding 3
Commercial name : Dolby Digital
Codec ID : A_AC3
Duration : 1 h 31 min
Bit rate mode : Constant
Bit rate : 448 kb/s
Channel(s) : 6 channels
Channel layout : L R C LFE Ls Rs
Sampling rate : 48.0 kHz
Frame rate : 31.250 FPS (1536 SPF)
Compression mode : Lossy
Stream size : 292 MiB (11%)
Title : DUB | Мосфильм-Мастер
Language : Russian
Service kind : Complete Main
Default : Yes
Forced : No
Audio #2
ID : 3
Format : AC-3
Format/Info : Audio Coding 3
Commercial name : Dolby Digital
Codec ID : A_AC3
Duration : 1 h 31 min
Bit rate mode : Constant
Bit rate : 448 kb/s
Channel(s) : 6 channels
Channel layout : L R C LFE Ls Rs
Sampling rate : 48.0 kHz
Frame rate : 31.250 FPS (1536 SPF)
Compression mode : Lossy
Stream size : 292 MiB (11%)
Title : MVO | HDrezka Studio
Language : Russian
Service kind : Complete Main
Default : No
Forced : No
Audio #3
ID : 4
Format : AC-3
Format/Info : Audio Coding 3
Commercial name : Dolby Digital
Codec ID : A_AC3
Duration : 1 h 31 min
Bit rate mode : Constant
Bit rate : 448 kb/s
Channel(s) : 6 channels
Channel layout : L R C LFE Ls Rs
Sampling rate : 48.0 kHz
Frame rate : 31.250 FPS (1536 SPF)
Compression mode : Lossy
Stream size : 292 MiB (11%)
Title : MVO | HDrezka Studio 18+
Language : Russian
Service kind : Complete Main
Default : No
Forced : No
Audio #4
ID : 5
Format : AC-3
Format/Info : Audio Coding 3
Commercial name : Dolby Digital
Codec ID : A_AC3
Duration : 1 h 31 min
Bit rate mode : Constant
Bit rate : 448 kb/s
Channel(s) : 6 channels
Channel layout : L R C LFE Ls Rs
Sampling rate : 48.0 kHz
Frame rate : 31.250 FPS (1536 SPF)
Compression mode : Lossy
Stream size : 292 MiB (11%)
Title : Original
Language : English
Service kind : Complete Main
Default : Yes
Forced : No
Audio #5
ID : 6
Format : AC-3
Format/Info : Audio Coding 3
Commercial name : Dolby Digital
Codec ID : A_AC3
Duration : 1 h 31 min
Bit rate mode : Constant
Bit rate : 384 kb/s
Channel(s) : 6 channels
Channel layout : L R C LFE Ls Rs
Sampling rate : 48.0 kHz
Frame rate : 31.250 FPS (1536 SPF)
Compression mode : Lossy
Stream size : 251 MiB (10%)
Title : DUB
Language : Ukrainian
Service kind : Complete Main
Default : No
Forced : No
Text #1
ID : 7
Format : UTF-8
Codec ID : S_TEXT/UTF8
Codec ID/Info : UTF-8 Plain Text
Duration : 1 h 24 min
Bit rate : 1 b/s
Count of elements : 26
Stream size : 1.18 KiB (0%)
Title : Forced
Language : Russian
Default : Yes
Forced : No
Text #2
ID : 8
Format : UTF-8
Codec ID : S_TEXT/UTF8
Codec ID/Info : UTF-8 Plain Text
Duration : 1 h 24 min
Bit rate : 96 b/s
Count of elements : 1030
Stream size : 59.8 KiB (0%)
Title : Full
Language : Russian
Default : No
Forced : No
Text #3
ID : 9
Format : UTF-8
Codec ID : S_TEXT/UTF8
Codec ID/Info : UTF-8 Plain Text
Duration : 1 h 24 min
Bit rate : 61 b/s
Count of elements : 1332
Stream size : 38.3 KiB (0%)
Title : Full
Language : English
Default : No
Forced : No
Text #4
ID : 10
Format : UTF-8
Codec ID : S_TEXT/UTF8
Codec ID/Info : UTF-8 Plain Text
Duration : 1 h 24 min
Bit rate : 71 b/s
Count of elements : 1588
Stream size : 44.0 KiB (0%)
Title : SDH
Language : English
Default : No
Forced : No
Menu
00:00:00.000 : :ger: 01
00:11:20.875 : :ger: 02
00:22:42.375 : :ger: 03
00:32:00.665 : :ger: 04
00:44:03.083 : :ger: 05
00:51:41.708 : :ger: 06
01:03:19.625 : :ger: 07
01:15:45.250 : :ger: 08
01:25:10.957 : :ger: 09
Релиз от:
Автор релиза:
pb.wtf



Скачать Красотка на взводе через торрент https://i115.fastpic.ru/big/2021/0725/c9/dabd2e82620fa3e7615db24e4fd19cc9.jpg Скачать, смотреть онлайн Красотка на взводе бесплантно в хорошем качестве Описание: Вышибала Линди плохо умеет управлять собственным гневом и постоянно боится кого-то убить в приступе ярости. В качестве ... 10 10 3
Торрент: Зарегистрирован [2021-12-03 19:00] · скачан: 137 раз
Статус: √ проверено
Размер: 2.5 GB
Как cкачать? Как скачать Красотка на взводе через торрент | UTorrent

28-11-2019 20:33  

Отключить всю рекламу на сайте

    Дорогой пользователь! Огромная просьба, поблагодарите релизера, оцените раздачу и оставьте свои комментарий, если Вы скачали Красотка на взводе через торрент бесплатно!
    Комментировать посты могут только пользователи прошедшие не сложную регистрацию
    Показать сообщения:    

    Красотка на взводе через торрент
    Скачать бесплатно Красотка на взводе
    Красотка на взводе скачать торрент
    Красотка на взводе смотреть онлайн
    Cкачать фильм Красотка на взводе бесплатно
    Красотка на взводе скачать торрент в хорошем качестве
    Красотка на взводе смотреть онлайн бесплатно в хорошем качестве


    Вы не можете начинать темы
    Вы не можете отвечать на сообщения
    Вы не можете редактировать свои сообщения
    Вы не можете удалять свои сообщения
    Вы не можете голосовать в опросах
    Вы не можете прикреплять файлы к сообщениям
    Вы можете скачивать файлы