Всегда рабочее зеркало без VPN и Proxy просто перед .vidak.icu напиши любое слово или цифру, Пример http://bwg2.vidak.icu

MVO

2 сезон

2 сезон

1

1 сезон

iTunes

2 сезон

13

1 сезон

Deluxe

pack

Рекомендуем

Пиратка

30

ВАЖНО

RePack

MK11

RePack

jed

RePack

fifa19

RePack

RDR2

RePack

NEED FOR SPEED™ PAYBACK

Кинопоиск HD

6 сезон

 Острые козырьки 6 сезон

Все сериалы

все сериалы на PB.wtf

RePack

FAR CRY 5

Anonymous, нам критически не хватает 5601 руб. на оплату серверов и переферии за Апрель, помоги нам пожалуйста, вся надежда только на тебя. В благодарность мы отключим тебе всю рекламу на сайте!

×
  
Magnet ссылка

Смертельная Битва / Mortal Kombat (Пол У. С. Андерсон / Paul W.S. Anderson) [1995 г., фантастика, фэнтези, боевик, триллер, приключения, BDRip-AVC, 60 FPS, AVO (С.Визгунов)] pb.wtf

Смертельная Битва через торрент pb.wtf

Размер: 2.41 GB | Добавлен: 5 мес. 10 д. назад | Торрент скачан:2 раза
Смотреть онлайн Смертельная Битва | Скачать    Ребята, помогите собрать деньги на оплату серверов!!!

06-12-2021 12:21 Смертельная Битва Скачать торрент  

Смертельная Битва / Mortal Kombat
Год выпуска: 1995
Страна: США
Жанр: фантастика, фэнтези, боевик, триллер, приключения
Продолжительность: 01:41:26
Перевод: Авторский (одноголосый) | С.Визгунов
Субтитры: русские (Full), английские (Full)

Режиссер: Пол У. С. Андерсон / Paul W.S. Anderson

Бюджет: $18 000 000
Премьера в мире: 13 июля 1995

rating

В ролях: Кристофер Ламберт (Lord Rayden), Робин Шу (Liu Kang), Линден Эшби (Johnny Cage), Кэри-Хироюки Тагава (Shang Tsung), Бриджет Уилсон (Sonya Blade), Талиса Сото (Kitana), Трэвор Годдард (Kano), Крис Касамасса (Scorpion), Франсуа Пети (Sub-Zero), Кит Кук (Reptile), Грегори МакКинни (Jax).

Описание: Несколько столетий назад Шанг Тсунг — маг из потустороннего мира захватил в свои руки древний воинский турнир. Его цель — ввергнуть наш мир в хаос. Чтобы спасти человечество от гибели, троим воинам предстоит битва… смертельная битва с силами мрака.

Качество: BDRip-AVC 60 FPS
Формат: MKV
Видео кодек: H.264
Аудио кодек: AC3
Видео: 1024x576 (16:9), 3 398 kbps, 59,940 fps, (0.091 bpp)
Аудио#1: Русский / AC-3 / 48 kHz / 192 kbps / 2 ch / AVO (С.Визгунов)
скриншот   скриншот   скриншот   скриншот   скриншот  

Общее
Уникальный идентификатор : 184635594761689026426961080074494544890 (0x8AE785A6B7328446A76C0DBBFA9C0BFA)
Полное имя : Z:\Раздача\Смертельная битва - 1.1995.mkv
Формат : Matroska
Версия формата : Version 4
Размер файла : 2,41 Гбайт
Продолжительность : 1 ч. 41 м.
Общий поток : 3 398 Кбит/сек
Название фильма : Смертельная битва - 1.1995
Дата кодирования : UTC 2021-03-20 03:07:41
Программа кодирования : mkvmerge v7.2.0 ('On Every Street') 32bit built on Sep 13 2014 15:42:11
Библиотека кодирования : libebml v1.3.0 + libmatroska v1.4.1
Attachments : poster.png

Видео
Идентификатор : 1
Формат : AVC
Формат/Информация : Advanced Video Codec
Профиль формата : High@L4.1
Настройки формата : CABAC / 8 Ref Frames
Параметр CABAC формата : Да
Параметр RefFrames формата : 8 кадров
Идентификатор кодека : V_MPEG4/ISO/AVC
Продолжительность : 1 ч. 41 м.
Битрейт : 3 398 Кбит/сек
Ширина : 1 024 пикселя
Высота : 576 пикселей
Соотношение сторон : 16:9
Режим частоты кадров : Постоянный
Частота кадров : 59,940 кадров/сек
Цветовое пространство : YUV
Субдискретизация насыщенности : 4:2:0
Битовая глубина : 8 бит
Тип развёртки : Прогрессивная
Бит/(Пиксели*Кадры) : 0.091
Размер потока : 2,27 Гбайт (94%)
Библиотека кодирования : x264 core 146 r2538 121396c
Настройки программы : cabac=1 / ref=8 / deblock=1:0:0 / analyse=0x3:0x113 / me=umh / subme=9 / psy=1 / psy_rd=1.00:0.10 / mixed_ref=1 / me_range=32 / chroma_me=1 / trellis=2 / 8x8dct=1 / cqm=0 / deadzone=21,11 / fast_pskip=0 / chroma_qp_offset=-3 / threads=6 / lookahead_threads=1 / sliced_threads=0 / nr=0 / decimate=1 / interlaced=0 / bluray_compat=0 / constrained_intra=0 / bframes=16 / b_pyramid=2 / b_adapt=2 / b_bias=0 / direct=3 / weightb=1 / open_gop=0 / weightp=2 / keyint=250 / keyint_min=25 / scenecut=40 / intra_refresh=0 / rc_lookahead=40 / rc=2pass / mbtree=0 / bitrate=3200 / ratetol=1.0 / qcomp=0.60 / qpmin=0 / qpmax=69 / qpstep=4 / cplxblur=20.0 / qblur=0.5 / vbv_maxrate=14000 / vbv_bufsize=14000 / nal_hrd=none / filler=0 / ip_ratio=1.40 / pb_ratio=1.30 / aq=1:1.00
Язык : English
Default : Да
Forced : Нет

Аудио
Идентификатор : 2
Формат : AC-3
Формат/Информация : Audio Coding 3
Коммерческое название : Dolby Digital
Идентификатор кодека : A_AC3
Продолжительность : 1 ч. 41 м.
Вид битрейта : Постоянный
Битрейт : 192 Кбит/сек
Каналы : 2 канала
Channel layout : L R
Частота : 48,0 КГц
Частота кадров : 31,250 кадров/сек (1536 SPF)
Метод сжатия : С потерями
Размер потока : 139 Мбайт (6%)
Заголовок : AVO, С.Визгунов
Язык : Russian
Service kind : Complete Main
Default : Нет
Forced : Нет

Текст #1
Идентификатор : 3
Формат : UTF-8
Идентификатор кодека : S_TEXT/UTF8
Идентификатор кодека/Информация : UTF-8 Plain Text
Продолжительность : 1 ч. 30 м.
Битрейт : 51 бит/сек
Count of elements : 600
Размер потока : 34,5 Кбайт (0%)
Заголовок : full#1
Язык : Russian
Default : Нет
Forced : Нет

Текст #2
Идентификатор : 4
Формат : UTF-8
Идентификатор кодека : S_TEXT/UTF8
Идентификатор кодека/Информация : UTF-8 Plain Text
Продолжительность : 1 ч. 30 м.
Битрейт : 51 бит/сек
Count of elements : 600
Размер потока : 34,5 Кбайт (0%)
Заголовок : full#2
Язык : Russian
Default : Нет
Forced : Нет

Текст #3
Идентификатор : 5
Формат : UTF-8
Идентификатор кодека : S_TEXT/UTF8
Идентификатор кодека/Информация : UTF-8 Plain Text
Продолжительность : 1 ч. 29 м.
Битрейт : 30 бит/сек
Count of elements : 754
Размер потока : 19,9 Кбайт (0%)
Заголовок : full
Язык : English
Default : Нет
Forced : Нет

Меню
00:00:00.000 : :Main Title
00:00:50.133 : :"Your Brother's Soul is Mine"
00:02:39.284 : :Sonya Blade
00:04:50.415 : :Johnny Cage
00:07:56.893 : :The Temple of Light, China
00:12:10.354 : :Chai Wan Bay, Hong Kong
00:15:35.935 : :Scorpion and Sub-Zero
00:18:15.219 : :The Chosen One
00:21:30.372 : :Arrival on the Island
00:25:00.832 : :A Taste of Things to Come
00:29:01.030 : :Kano and the Prince
00:36:24.557 : :Dumb and Ugly
00:39:41.670 : :The Tournament
00:42:41.850 : :Something for Sonya
00:45:38.527 : :Johnny's Turn
00:50:59.473 : :Tip from the Princess
00:52:52.252 : :The Element Which Brings Life
00:56:08.281 : :Goro's Fury
01:00:15.028 : :The Fear Inside
01:05:48.653 : :Johnny vs. Goro
01:09:06.016 : :The Abduction of Sonya
01:10:51.956 : :Into Outworld
01:17:09.666 : :The Black Tower
01:20:50.470 : :Liu vs. Shang Tsung
01:23:53.987 : :"Face Your Worst Fear"
01:30:26.629 : :The Emperor
01:31:34.864 : :End Credits

pb.wtf



Скачать Смертельная Битва через торрент https://i116.fastpic.org/big/2021/1206/83/fe5d4ae3e177650c17da96b152c8dc83.jpg Скачать, смотреть онлайн Смертельная Битва бесплантно в хорошем качестве Описание: Несколько столетий назад Шанг Тсунг — маг из потустороннего мира захватил в свои руки древний воинский турнир. Его цель — ... 10 10 1
Торрент: Зарегистрирован [2021-12-06 12:21] · скачан: 2 раз
Статус: ? недооформлено
Размер: 2.41 GB
Как cкачать? Как скачать Смертельная Битва через торрент | UTorrent

% Раздел Тема Автор DL S | L
Зарубежные Мультфильмы (BDRip 1080p, 720p, Blu-ray, BD-Remux) [ 6.19 GB ] Легенды Мортал комбат: Битва миров / Легенды «Смертельной битвы»: Битва королевств / Mortal Kombat Legends: Battle of the Realms [2021 Мультфильм BDRip 1080p] DUB [Кинопоиск HD] bober100 Скачать
2 | 1
Ultra HD (UHD: 2K, 4K, 8K) [ 30.71 GB ] Легенды Мортал комбат: Битва миров / Легенды «Смертельной битвы»: Битва королевств / Mortal Kombat Legends: Battle of the Realms [2021 Мультфильм UHD BDRemux 2160p] DUB [Кинопоиск HD] bober100 Скачать
2 | 0
Иностранные мультфильмы [ 2.06 GB ] Легенды «Смертельной битвы»: Месть Скорпиона / Mortal Kombat Legends: Scorpions Revenge [2020 Мультфильм BDRip-AVC] MVO [NewComers] - ExKinoRay Mr. Grab Скачать
1 | 0
Зарубежные Мультфильмы (WEB-DL 720p, 1080p) [ 4.13 GB ] Легенды «Смертельной битвы»: Месть Скорпиона / Mortal Kombat Legends: Scorpion's Revenge [2020 мультфильм WEB-DL 1080p] [MVO] killermax2013 Скачать
1 | 0
Иностранные мультфильмы [ 1.46 GB ] Легенды «Смертельной битвы»: Месть Скорпиона / Mortal Kombat Legends: Scorpions Revenge [2020 мультфильм HDRip] MVO [NewComers] Twi7ter Скачать
2 | 0
Фильмы до 2000 г. [ 1.42 GB ] Смертельная Битва 2: Уничтожение / Mortal Kombat 2: Annihilation [1997 HDRip-AVC] [MVO] killermax2013 Скачать
1 | 0
Зарубежные сериалы [ 5.68 GB ] Смертельная битва: Наследие / Mortal Kombat: Legacy / Сезон: 1-2 / Серии: 1-19 из 19 [2011-2013 WEB-DL 720p] MVO [LostFilm] bober100 Скачать
1 | 0


Последний раз редактировалось: TimeCop (2022-04-27 13:12), всего редактировалось 2 раз(а)

28-11-2019 20:33  

Отключить всю рекламу на сайте

19-12-2021 04:03 Смертельная Битва Скачать торрент  

Раздача будет остановлена 31 декабря. Если нужно будет востановить раздачу, пишит сюда. Заходить буду один раз в неделю.pb.wtf



    Дорогой пользователь! Огромная просьба, поблагодарите релизера, оцените раздачу и оставьте свои комментарий, если Вы скачали Смертельная Битва через торрент бесплатно!
    Комментировать посты могут только пользователи прошедшие не сложную регистрацию
    Показать сообщения:    

    Смертельная Битва через торрент
    Скачать бесплатно Смертельная Битва
    Смертельная Битва скачать торрент
    Смертельная Битва смотреть онлайн
    Cкачать фильм Смертельная Битва бесплатно
    Смертельная Битва скачать торрент в хорошем качестве
    Смертельная Битва смотреть онлайн бесплатно в хорошем качестве


    Вы не можете начинать темы
    Вы не можете отвечать на сообщения
    Вы не можете редактировать свои сообщения
    Вы не можете удалять свои сообщения
    Вы не можете голосовать в опросах
    Вы не можете прикреплять файлы к сообщениям
    Вы можете скачивать файлы