Всегда рабочее зеркало без VPN и Proxy просто перед .vidak.icu напиши любое слово или цифру, Пример http://t3o3.vidak.icu

MVO

2 сезон

2 сезон

1

1 сезон

iTunes

2 сезон

13

1 сезон

Распродажа

pack

Рекомендуем

Пиратка

30

ВАЖНО

RePack

MK11

RePack

jed

RePack

fifa19

RePack

RDR2

RePack

NEED FOR SPEED™ PAYBACK

Кинопоиск HD

6 сезон

 Острые козырьки 6 сезон

Все сериалы

все сериалы на PB.wtf

RePack

FAR CRY 5

Anonymous, нам критически не хватает 5601 руб. на оплату серверов и переферии за Апрель, помоги нам пожалуйста, вся надежда только на тебя. В благодарность мы отключим тебе всю рекламу на сайте!

×
  
Magnet ссылка

Тыгын Дархан (Никита Аржаков) [2020, Драма, история, военный, WEB-DLRip-AVC] DVO [iTunes] от ExKinoRay pb.wtf

Тыгын Дархан через торрент pb.wtf

Раздают: 1 [ 0 KB/s ]
Размер: 2.2 GB | Добавлен: 5 мес. 11 д. назад | Торрент скачан:58 раз
Смотреть онлайн Тыгын Дархан | Скачать    Ребята, помогите собрать деньги на оплату серверов!!!

06-12-2021 18:14 Тыгын Дархан Скачать торрент  


Тыгын Дархан
Информация о фильме:
Название: Тыгын Дархан
Год выхода: 2020
Жанр: Драма, история, военный
Режиссер: Никита Аржаков

В ролях: Ньургун Бэчигэн, Петр Саввин, Анатолий Николаев, Василиса Мыреева, Ирина Никифорова, Пётр Макаров, Айталина Лавернова, Александра Григорьева, Дмитрий Алексеев, Владислав Портнягин

Описание: На рубеже XVI—XVII веков Якутия страдает от междоусобиц. Тыгын Дархан, глава хангаласского рода, пытается объединить разрозненные племена и роды и установить союз. Однако не все предводители согласны делить Влacть. В результате коварных интриг и провокаций над долиной Туймаада просыпается дух войны.

rating

Страна: Россия
Студия: АНО Кинокомпания «Тыгын»
Продолжительность: 02:24:23
Перевод: Профессиональный (двухголосый, закадровый) - iTunes



Информация о файле:
Кодек: AVC
Формат: MKV
Качество: WEB-DLRip-AVC
Видео: MPEG-4 AVC, 1024x428, 24.000 fps, 1800 kbps
Аудио RU: AC3, 6 ch, 48 kHz, 384 kbps

x264 info: frame I:1486 Avg QP:16.20 size: 70886
x264 info: frame P:57426 Avg QP:19.45 size: 19068
x264 info: frame B:149019 Avg QP:21.48 size: 5025
x264 info: consecutive B-frames: 2.8% 6.6% 6.5% 70.7% 6.1% 5.7% 0.8% 0.6% 0.1% 0.0% 0.0% 0.0% 0.0%
General
Unique ID : 59324908315761149561204395779616686600 (0x2CA18FCE049B835717D6624563E84208)
Complete name : D:uTorrentРипы wolf1245Tygyn.Darhan.2020.iTunes.WEB-DLRip-AVC.[wolf1245.ExKinoRay].mkv
Format : Matroska
Format version : Version 4
File size : 2.20 GiB
Duration : 2 h 24 min
Overall bit rate : 2 186 kb/s
Movie name : Tygyn.Darhan.2020.iTunes.WEB-DLRip-AVC.[wolf1245.ExKinoRay]
Encoded date : UTC 2021-12-06 18:00:46
Writing application : mkvmerge v63.0.0 ('Everything') 64-bit
Writing library : libebml v1.4.2 + libmatroska v1.6.4
Video
ID : 1
Format : AVC
Format/Info : Advanced Video Codec
Format profile : High@L4.1
Format settings : CABAC / 14 Ref Frames
Format settings, CABAC : Yes
Format settings, Reference frames : 14 frames
Codec ID : V_MPEG4/ISO/AVC
Duration : 2 h 24 min
Bit rate : 1 800 kb/s
Width : 1 024 pixels
Height : 428 pixels
Display aspect ratio : 2.40:1
Frame rate mode : Constant
Frame rate : 24.000 FPS
Color space : YUV
Chroma subsampling : 4:2:0
Bit depth : 8 bits
Scan type : Progressive
Bits/(Pixel*Frame) : 0.171
Stream size : 1.82 GiB (82%)
Title : -=[wolf1245.ExKinoRay]=-
Writing library : x264 core 163 r3060 5db6aa6
Encoding settings : cabac=1 / ref=14 / deblock=1:-2:-2 / analyse=0x3:0x133 / me=umh / subme=10 / psy=1 / psy_rd=1.02:0.05 / mixed_ref=1 / me_range=32 / chroma_me=1 / trellis=2 / 8x8dct=1 / cqm=0 / deadzone=21,11 / fast_pskip=1 / chroma_qp_offset=-3 / threads=10 / lookahead_threads=2 / sliced_threads=0 / nr=0 / decimate=0 / interlaced=0 / bluray_compat=0 / constrained_intra=0 / bframes=12 / b_pyramid=2 / b_adapt=2 / b_bias=0 / direct=3 / weightb=1 / open_gop=0 / weightp=2 / keyint=240 / keyint_min=24 / scenecut=40 / intra_refresh=0 / rc_lookahead=60 / rc=2pass / mbtree=0 / bitrate=1800 / ratetol=1.0 / qcomp=0.60 / qpmin=0 / qpmax=69 / qpstep=4 / cplxblur=20.0 / qblur=0.5 / vbv_maxrate=50000 / vbv_bufsize=62500 / nal_hrd=none / filler=0 / ip_ratio=1.40 / pb_ratio=1.30 / aq=3:0.80
Language : Russian
Default : Yes
Forced : No
Color range : Limited
Color primaries : BT.709
Transfer characteristics : BT.709
Matrix coefficients : BT.709
Audio
ID : 2
Format : AC-3
Format/Info : Audio Coding 3
Commercial name : Dolby Digital
Codec ID : A_AC3
Duration : 2 h 24 min
Bit rate mode : Constant
Bit rate : 384 kb/s
Channel(s) : 6 channels
Channel layout : L R C LFE Ls Rs
Sampling rate : 48.0 kHz
Frame rate : 31.250 FPS (1536 SPF)
Compression mode : Lossy
Stream size : 397 MiB (18%)
Title : iTunes | RUS
Language : Russian
Service kind : Complete Main
Default : Yes
Forced : No
Menu
00:00:00.000 : :Глава 01
00:06:59.541 : :Глава 02
00:13:55.957 : :Глава 03
00:20:55.748 : :Глава 04
00:27:55.748 : :Глава 05
00:34:55.789 : :Глава 06
00:41:53.955 : :Глава 07
00:48:53.080 : :Глава 08
00:55:52.663 : :Глава 09
01:02:52.329 : :Глава 10
01:09:52.453 : :Глава 11
01:16:52.079 : :Глава 12
01:23:49.037 : :Глава 13
01:30:52.162 : :Глава 14
01:37:52.537 : :Глава 15
01:44:59.162 : :Глава 16
01:51:58.662 : :Глава 17
01:59:04.287 : :Глава 18
02:06:03.495 : :Глава 19
02:13:04.370 : :Глава 20
Релиз от:
Автор релиза:
pb.wtf



Скачать Тыгын Дархан через торрент https://i116.fastpic.org/big/2021/1202/da/712376138227aec348a77d3fbd807bda.jpg Скачать, смотреть онлайн Тыгын Дархан бесплантно в хорошем качестве Описание: На рубеже XVI—XVII веков Якутия страдает от междоусобиц. Тыгын Дархан, глава хангаласского рода, пытается объединить ... 10 10 6
Торрент: Зарегистрирован [2021-12-06 18:14] · скачан: 58 раз
Статус: √ проверено
Размер: 2.2 GB
Как cкачать? Как скачать Тыгын Дархан через торрент | UTorrent

28-11-2019 20:33  

Отключить всю рекламу на сайте

06-12-2021 21:56 Тыгын Дархан Скачать торрент  

Фильм пепец конечно скукотища ... весь фильм какая-то непонятная возня , в итоге война . На войне дерутся 5 человек . В итоге пришли брать крепость из штакетника . Крепость взяли перекинув берсекера через забор , и он всех замахал . пепец это просто ваще жесть какая скукота .pb.wtf



    Дорогой пользователь! Огромная просьба, поблагодарите релизера, оцените раздачу и оставьте свои комментарий, если Вы скачали Тыгын Дархан через торрент бесплатно!
    Комментировать посты могут только пользователи прошедшие не сложную регистрацию
    Показать сообщения:    

    Тыгын Дархан через торрент
    Скачать бесплатно Тыгын Дархан
    Тыгын Дархан скачать торрент
    Тыгын Дархан смотреть онлайн
    Cкачать фильм Тыгын Дархан бесплатно
    Тыгын Дархан скачать торрент в хорошем качестве
    Тыгын Дархан смотреть онлайн бесплатно в хорошем качестве


    Вы не можете начинать темы
    Вы не можете отвечать на сообщения
    Вы не можете редактировать свои сообщения
    Вы не можете удалять свои сообщения
    Вы не можете голосовать в опросах
    Вы не можете прикреплять файлы к сообщениям
    Вы можете скачивать файлы