Лицензия

MVO

1

1 сезон

Лицензия

Лицензия

13

MVO

1 сезон

Deluxe Edition

pack

Рекомендуем

30

Repack

ВАЖНО

ВАЖНО

Ghostwire

RePack

jed

RePack

fifa19

RePack

RDR2

RePack

NEED FOR SPEED™ PAYBACK

RePack

Кинопоиск HD

 Острые козырьки 6 сезон

6 сезон

FAR CRY 6

RePack

Лицензия

MVO

1

1 сезон

1 сезон

Лицензия

  

Вокруг света за 80 дней / Around the World in 80 Days / Сезон: 1 / Серии: 1-8 из 8 (Стив Бэррон) [2021, Комедия, приключения, WEBRip 720p] [MVO] (HDRezka Studio)

Вокруг света за 80 дней через торрент pb.wtf

Размер: 9.4 GB | Добавлен: 9 мес. назад | Торрент скачан:218 раз
Смотреть онлайн Вокруг света за 80 дней | Скачать   

08-12-2021 10:26 Вокруг света за 80 дней Скачать торрент  

Вокруг света за 80 дней / Around the World in 80 Days

Год выпуска: 2021
Страна: Франция, Германия, Италия
Жанр: Комедия, приключения
Продолжительность: ~ 00:48:00
Перевод: Профессиональный (многоголосый закадровый) - HDRezka Studio
Субтитры: русские (форсированные)

Режиссёр: Стив Бэррон

В ролях: Дэвид Теннант, Леони Бенеш, Питер Салливан, Ибрагим Кома, Энтони Флэнеган, Шивани Гаи, Ивэн Хенгст, Дэвид Шервуд, Чарли Хэмблетт, Свен Райгрок

Описание: Экранизации одноименного романа Жюля Верна. Филеас Фогг заключает со своими друзьями пари, что он сможет обогнуть земной шар всего за 80 дней и вместе со своим камердинером Паспарту отправляется в путешествие. К ним присоединяется начинающая журналистка Эбигейл Фикс, которая собирается сделать репортаж об этой необычной истории.

rating

Качество: WEBRip 720p
Формат: MKV
Видео: AVC, 1280х720, ~2 945 kbps, 25 fps
Аудио: 48 kHz, AC3, 2 ch, 192 kbps avg | HDRezka Studio
скриншот  скриншот  скриншот  скриншот  скриншот  
General
Unique ID : 175156060250597744787246737717752705022 (0x83C5D483E86076F2942D629241C32FFE)
Complete name : G:\Around the World in 80 Days.S01.WEBRip(720p).xz\Around the World in 80 Days.S01E01.WEBRip(720p).[MVO] (HDRezka Studio).xz.mkv
Format : Matroska
Format version : Version 4
File size : 1.07 GiB
Duration : 47 min 40 s
Overall bit rate mode : Variable
Overall bit rate : 3 201 kb/s
Movie name : Around the World in 80 Days.S01E01.WEBRip(720p).[MVO] (HDRezka Studio).xz
Encoded date : UTC 2021-12-08 10:06:23
Writing application : mkvmerge v6.1.0 ('Old Devil') built on Mar 2 2013 14:32:37
Writing library : libebml v1.3.0 + libmatroska v1.4.0

Video
ID : 1
Format : AVC
Format/Info : Advanced Video Codec
Format profile : [email protected]
Format settings : CABAC / 1 Ref Frames
Format settings, CABAC : Yes
Format settings, Reference : 1 frame
Codec ID : V_MPEG4/ISO/AVC
Duration : 47 min 40 s
Bit rate mode : Variable
Bit rate : 2 945 kb/s
Maximum bit rate : 2 000 kb/s
Width : 1 280 pixels
Height : 720 pixels
Display aspect ratio : 16:9
Frame rate mode : Constant
Frame rate : 25.000 FPS
Color space : YUV
Chroma subsampling : 4:2:0
Bit depth : 8 bits
Scan type : Progressive
Bits/(Pixel*Frame) : 0.128
Stream size : 1 004 MiB (92%)
Title : Around the World in 80 Days.S01E01.WEBRip(720p).[MVO] (HDRezka Studio).xz
Default : Yes
Forced : No
Statistics Tags Issue : mkvmerge v28.2.0 ('The Awakening') 64-bit 2021-12-08 00:23:39 / mkvmerge v6.1.0 ('Old Devil') built on Mar 2 2013 14:32:37 2021-12-08 10:06:23
FromStats_BitRate : 3002950
FromStats_Duration : 00:47:50.200000000
FromStats_FrameCount : 71755
FromStats_StreamSize : 1077383593
Duration_Source : General_Duration

Audio
ID : 2
Format : AC-3
Format/Info : Audio Coding 3
Commercial name : Dolby Digital
Codec ID : A_AC3
Duration : 47 min 40 s
Bit rate mode : Constant
Bit rate : 192 kb/s
Channel(s) : 2 channels
Channel layout : L R
Sampling rate : 48.0 kHz
Frame rate : 31.250 FPS (1536 SPF)
Compression mode : Lossy
Stream size : 65.5 MiB (6%)
Title : HDRezka Studio
Language : Russian
Service kind : Complete Main
Default : Yes
Forced : No
Duration_Source : General_Duration

Text
ID : 3
Format : UTF-8
Codec ID : S_TEXT/UTF8
Codec ID/Info : UTF-8 Plain Text
Title : rus (forced)
Language : Russian
Default : No
Forced : No
Statistics Tags Issue : mkvmerge v28.2.0 ('The Awakening') 64-bit 2021-12-08 00:23:39 / mkvmerge v6.1.0 ('Old Devil') built on Mar 2 2013 14:32:37 2021-12-08 10:06:23
FromStats_BitRate : 1
FromStats_Duration : 00:44:11.080000000
FromStats_FrameCount : 23
FromStats_StreamSize : 630
Внимание! Раздача ведётся путём добавления новых серий; при каждом добавлении создаётся новый торрент.
Чтобы начать докачку новой серии, пользователям необходимо сделать следующее:

1. Остановить скачивание.
2. Удалить старый торрент у себя из клиента (старые серии удалять не надо).
3. Скачать новый торрент и запустить его у себя в клиенте вместо старого, при этом указать клиенту путь в старую папку куда и должно происходить скачивание новых серий.

Ваш клиент при этом должен произвести хеширование (проверку) старой папки (если не производит сам - помогите ему сделать это), и будет докачивать только те серии которых у вас ещё нет. Старые серии при этом не удаляются, а продолжают раздаваться!
Eсли вы уже удалили старые серии, то предотвратить повторную закачку старых серий можно, отжав галочку в соответсвующих местах при запуске нового торрента.



Скачать Вокруг света за 80 дней через торрент https://i4-imageban-ru.translate.goog/out/2021/12/08/1fe43d89226b9f058f80ee4c0fd5d91b.jpg Скачать, смотреть онлайн Вокруг света за 80 дней бесплантно в хорошем качестве Описание: Экранизации одноименного романа Жюля Верна. Филеас Фогг заключает со своими друзьями пари, что он сможет обогнуть земной шар ... 10 10 15
Info! Золотая раздача, скачанное не засчитывается.
Торрент: Зарегистрирован [2021-12-14 10:51] · скачан: 218 раз
Статус: √ проверено
Размер: 9.4 GB
Как cкачать? Как скачать Вокруг света за 80 дней через торрент | UTorrent

% Раздел Тема Автор DL S | L
Зарубежные сериалы [ 5.36 GB ] Вокруг света за 80 дней / Around the World in 80 Days / Сезон: 1 / Серии: 1-8 из 8 | MVO | DLRip bober100 Скачать
2 | 0
Зарубежные сериалы [ 14.35 GB ] Вокруг света за 80 дней / Around the World in 80 Days / Сезон: 1 / Серии: 1-8 из 8 | MVO | 1080p bober100 Скачать
2 | 0



Последний раз редактировалось: killermax2013 (2021-12-14 10:51), всего редактировалось 6 раз(а)

28-11-2019 20:33  

Отключить вcю реклaмy на сайте

08-12-2021 11:25 Вокруг света за 80 дней Скачать торрент  

джеки чан в солярии пересидел?



08-12-2021 13:14 Вокруг света за 80 дней Скачать торрент  

vadimon1500 писал(а):

джеки чан в солярии пересидел?

Это слуга, а слуга должен быть чёрным! Тут всё в порядке.



08-12-2021 16:22 Вокруг света за 80 дней Скачать торрент  

БОГАТЫРЬ писал(а):

vadimon1500 писал(а):

джеки чан в солярии пересидел?

Это слуга, а слуга должен быть чёрным! Тут всё в порядке.




08-12-2021 23:58 Вокруг света за 80 дней Скачать торрент  

а превращение матёрого мистера фикса в бабу вас не смущает? в недавнем мульте тоже бабища. каноничное "есть ли у вас план, мистер фикс?" уходит в небытие (((



14-12-2021 14:41 Вокруг света за 80 дней Скачать торрент  

tamburetko писал(а):

а превращение матёрого мистера фикса в бабу вас не смущает? в недавнем мульте тоже бабища. каноничное "есть ли у вас план, мистер фикс?" уходит в небытие (((

давно уже нет...
[img=left]https://ibb.co/LhhXn1v[/img]



    Дорогой пользователь! Огромная просьба, поблагодарите релизера, оцените раздачу и оставьте свои комментарий, если Вы скачали Вокруг света за 80 дней через торрент бесплатно!!
    Комментировать посты могут только пользователи прошедшие не сложную регистрацию
    Показать сообщения:    


    Вокруг света за 80 дней через торрент
    Скачать бесплатно Вокруг света за 80 дней
    Вокруг света за 80 дней скачать торрент
    Вокруг света за 80 дней смотреть онлайн
    Cкачать фильм Вокруг света за 80 дней бесплатно
    Вокруг света за 80 дней скачать торрент в хорошем качестве
    Вокруг света за 80 дней смотреть онлайн бесплатно в хорошем качестве
    Вы не можете начинать темы
    Вы не можете отвечать на сообщения
    Вы не можете редактировать свои сообщения
    Вы не можете удалять свои сообщения
    Вы не можете голосовать в опросах
    Вы не можете прикреплять файлы к сообщениям
    Вы можете скачивать файлы