Всегда рабочее зеркало просто перед .vidak.icu напиши любое слово или цифру, Пример http://wfw.vidak.icu

>

7.4

iTunes

7.4

2 сезон

9.4

1 сезон

1

7.4

2 сезон

7.2

iTunes

6.0

MVO

13

6.1

iTunes

8.3

Пиратка

30

ULTIMATE

pack

9.9

Лицензия

ВАЖНО

ИГРА 18+

pack

7.3

RePack

MK11

7.7

RePack

jed

7.8

RePack

fifa19

8.5

RePack

RDR2

RePack

NEED FOR SPEED™ PAYBACK

1 сезон

9 сезон

Бесстыжие 9 сезон

Все сериалы

все сериалы на PB.wtf

RePack

FAR CRY 5

Anonymous, доброе утро, мы катастрофически не успеваем собрать деньги на оплату серверов, помогите нам пожалуйста 5,10,15р., для нас важна любая помощь . В качестве благодарности мы отключим Вам всю рекламу на сайте (укажите свой ник в строку Ваше имя)!

×
  
Magnet ссылка

Мачо и ботан: Дилогия / Jump Street: Dilogy (Фил Лорд, Крис Миллер) [2012-2014, комедия, боевик, криминал, BDRip - HEVC 1080p 10 bit 60 FPS, DUB, AVO] pb.wtf

Мачо и ботан: Дилогия через торрент pb.wtf

Раздают: 1 [ 0 KB/s ]
Размер: 10.09 GB | Добавлен: 1 мес. 11 д. назад | Торрент скачан:17 раз
Смотреть онлайн Мачо и ботан: Дилогия | Скачать    Ребята, помогите собрать деньги на оплату серверов!!!

08-12-2021 13:38 Мачо и ботан: Дилогия Скачать торрент  



21 Jump Street
«Операция «Анти-косяк»


Год выпуска: 2012
Страна: США
Жанр: комедия, боевик, криминал

Продолжительность: 01:49:51
Перевод: Дублированный | Невафильм
Перевод: Авторский | Михаил Яроцкий
Субтитры: русские |

Режиссер: Фил Лорд, Крис Миллер
В ролях: Джона Хилл, Ченнинг Татум, Бри Ларсон, Дэйв Франко, Роб Риггл, Айс Кьюб, ДеРэй Дэвис, Дакс Флэйм, Крис Парнелл, Элли Кемпер, Джейк Джонсон, Ник Офферман

Описание:
Шмидт и Дженко люто ненавидели друг друга в школе. Однако жизнь распорядилась так, чтобы в полицейской академии они стали друзьями. Их никак нельзя было назвать гордостью альма-матер до тех пор, пока судьба не подкинула шанс все изменить — они поступили на службу в департамент секретной службы на Джамп-стрит, которой руководит капитан Диксон. Они меняют пистолеты и удостоверения на ранцы и используют свою моложавую внешность как прикрытие. Беда в том, что современные тинейджеры сильно отличаются от тех, какими их запомнили Шмидт и Дженко. Друзья понимают, что все их знания о сексе, наркотиках и рок-н-ролле в корне неверны. Кроме того, парни понимают, что, несмотря на прошедшие годы, детские комплексы им так и не удалось полностью искоренить. Обоим предстоит вновь заглянуть в глаза собственным страхам и в прямом смысле слова вернуться в шкуры подростков.

Мировая премьера: 12 марта 2012


Качество: WEB-DLRip 1080p Rip by DD2D3
Формат: MKV
Видео: V_MPEGH/ISO/HEVC; 1920x1080 (16:9); 4866 Kbps; 59,940 fps; 0,039 bpp
Аудио: русский; AC3; 640 Kbps; CBR; 6 ch ||
Аудио: русский; DTS; 1509 Kbps; CBR; 6 ch 24 bit ||
Навигация по главам: нет
Доп. инф: Open Matte



Общее
Уникальный идентификатор : 198736823551599701958012690778473070111 (0x958351E8714F37EE9D4AC39FF2277E1F)
Полное имя : D:\Jump Street Dilogy (2012-2014) BDRip - HEVC 1080p 10 bit 60 FPS\21 Jump Street [Open Matte] (2012) WEB-DLRip - HEVC 1080p 10 bit 60 FPS.mkv
Формат : Matroska
Версия формата : Version 2
Размер файла : 5,49 Гбайт
Продолжительность : 1 ч. 49 м.
Общий поток : 7 158 Кбит/сек
Название фильма : Rip by from DD2D3
Дата кодирования : UTC 2021-12-07 09:33:45
Программа кодирования : mkvmerge v7.8.0 ('River Man') 32bit built on Apr 3 2015 12:11:22
Библиотека кодирования : libebml v1.3.1 + libmatroska v1.4.2
Attachments : poster

Видео
Идентификатор : 1
Формат : HEVC
Формат/Информация : High Efficiency Video Coding
Профиль формата : Main 10@L4.1@Main
Идентификатор кодека : V_MPEGH/ISO/HEVC
Продолжительность : 1 ч. 49 м.
Битрейт : 4 867 Кбит/сек
Ширина : 1 920 пикселей
Высота : 1 080 пикселей
Соотношение сторон : 16:9
Режим частоты кадров : Постоянный
Частота кадров : 59,940 (60000/1001) кадров/сек
Цветовое пространство : YUV
Субдискретизация насыщенности : 4:2:0
Битовая глубина : 10 бит
Бит/(Пиксели*Кадры) : 0.039
Размер потока : 3,73 Гбайт (68%)
Библиотека кодирования : x265 3.5+10-82786fccc:[Windows][GCC 11.1.0][64 bit] 10bit
Настройки программы : cpuid=1111039 / frame-threads=2 / numa-pools=4 / wpp / no-pmode / no-pme / no-psnr / no-ssim / log-level=2 / input-csp=1 / input-res=1920x1080 / interlace=0 / total-frames=395071 / level-idc=41 / high-tier=1 / uhd-bd=0 / ref=3 / no-allow-non-conformance / no-repeat-headers / annexb / no-aud / no-eob / no-eos / no-hrd / info / hash=0 / no-temporal-layers / open-gop / min-keyint=25 / keyint=250 / gop-lookahead=0 / bframes=4 / b-adapt=2 / b-pyramid / bframe-bias=0 / rc-lookahead=20 / lookahead-slices=6 / scenecut=40 / hist-scenecut=0 / radl=0 / no-splice / no-intra-refresh / ctu=64 / min-cu-size=8 / no-rect / no-amp / max-tu-size=32 / tu-inter-depth=1 / tu-intra-depth=1 / limit-tu=0 / rdoq-level=0 / dynamic-rd=0.00 / no-ssim-rd / signhide / no-tskip / nr-intra=0 / nr-inter=0 / no-constrained-intra / strong-intra-smoothing / max-merge=3 / limit-refs=1 / no-limit-modes / me=2 / subme=5 / merange=57 / temporal-mvp / no-frame-dup / no-hme / weightp / no-weightb / no-analyze-src-pics / deblock=0:0 / sao / no-sao-non-deblock / rd=3 / selective-sao=4 / early-skip / rskip / no-fast-intra / no-tskip-fast / no-cu-lossless / b-intra / no-splitrd-skip / rdpenalty=0 / psy-rd=0.40 / psy-rdoq=0.00 / no-rd-refine / no-lossless / cbqpoffs=0 / crqpoffs=0 / rc=abr / bitrate=5000 / qcomp=0.60 / qpstep=4 / stats-write=0 / stats-read=2 / cplxblur=20.0 / qblur=0.5 / ipratio=1.40 / pbratio=1.30 / aq-mode=2 / aq-strength=1.00 / cutree / zone-count=0 / no-strict-cbr / qg-size=32 / no-rc-grain / qpmax=69 / qpmin=0 / no-const-vbv / sar=1 / overscan=0 / videoformat=5 / range=0 / colorprim=2 / transfer=2 / colormatrix=2 / chromaloc=0 / display-window=0 / cll=0,0 / min-luma=0 / max-luma=1023 / log2-max-poc-lsb=8 / vui-timing-info / vui-hrd-info / slices=1 / no-opt-qp-pps / no-opt-ref-list-length-pps / no-multi-pass-opt-rps / scenecut-bias=0.05 / hist-threshold=0.03 / no-opt-cu-delta-qp / no-aq-motion / no-hdr10 / no-hdr10-opt / no-dhdr10-opt / no-idr-recovery-sei / analysis-reuse-level=0 / analysis-save-reuse-level=0 / analysis-load-reuse-level=0 / scale-factor=0 / refine-intra=0 / refine-inter=0 / refine-mv=1 / refine-ctu-distortion=0 / no-limit-sao / ctu-info=0 / no-lowpass-dct / refine-analysis-type=0 / copy-pic=1 / max-ausize-factor=1.0 / no-dynamic-refine / no-single-sei / no-hevc-aq / no-svt / no-field / qp-adaptation-range=1.00 / scenecut-aware-qp=0conformance-window-offsets / right=0 / bottom=0 / decoder-max-rate=0 / no-vbv-live-multi-pass
Default : Да
Forced : Нет

Аудио #1
Идентификатор : 2
Формат : AC-3
Формат/Информация : Audio Coding 3
Коммерческое название : Dolby Digital
Идентификатор кодека : A_AC3
Продолжительность : 1 ч. 49 м.
Вид битрейта : Постоянный
Битрейт : 640 Кбит/сек
Каналы : 6 каналов
Channel layout : L R C LFE Ls Rs
Частота : 48,0 КГц
Частота кадров : 31,250 кадров/сек (1536 SPF)
Метод сжатия : С потерями
Размер потока : 503 Мбайт (9%)
Заголовок : Невафильм
Язык : Russian
Service kind : Complete Main
Default : Да
Forced : Нет
Statistics Tags Issue : mkvmerge v44.0.0 ('Domino') 64-bit 2021-12-01 18:20:39 / mkvmerge v7.8.0 ('River Man') 32bit built on Apr 3 2015 12:11:22 2021-12-07 09:33:45
FromStats_BitRate : 640000
FromStats_Duration : 01:49:48.480000000
FromStats_FrameCount : 205890
FromStats_StreamSize : 527078400

Аудио #2
Идентификатор : 3
Формат : DTS
Формат/Информация : Digital Theater Systems
Идентификатор кодека : A_DTS
Продолжительность : 1 ч. 49 м.
Вид битрейта : Постоянный
Битрейт : 1 509 Кбит/сек
Каналы : 6 каналов
Channel layout : C L R Ls Rs LFE
Частота : 48,0 КГц
Частота кадров : 93,750 кадра/сек (512 SPF)
Битовая глубина : 24 бит
Метод сжатия : С потерями
Размер потока : 1,16 Гбайт (21%)
Заголовок : Михаил Яроцкий
Язык : Russian
Default : Нет
Forced : Нет
Statistics Tags Issue : mkvmerge v44.0.0 ('Domino') 64-bit 2021-12-01 18:20:39 / mkvmerge v7.8.0 ('River Man') 32bit built on Apr 3 2015 12:11:22 2021-12-07 09:33:45
FromStats_BitRate : 1509000
FromStats_Duration : 01:49:48.608000000
FromStats_FrameCount : 617682
FromStats_StreamSize : 1242776184

Текст
Идентификатор : 4
Формат : UTF-8
Идентификатор кодека : S_TEXT/UTF8
Идентификатор кодека/Информация : UTF-8 Plain Text
Язык : Russian
Default : Нет
Forced : Нет
Statistics Tags Issue : mkvmerge v44.0.0 ('Domino') 64-bit 2021-12-01 18:20:39 / mkvmerge v7.8.0 ('River Man') 32bit built on Apr 3 2015 12:11:22 2021-12-07 09:33:45
FromStats_BitRate : 130
FromStats_Duration : 01:42:25.940000000
FromStats_FrameCount : 1631
FromStats_StreamSize : 100113
скриншот  скриншот  скриншот  скриншот  


© Оформление by DD2D3


22 Jump Street


Год выпуска: 2014
Страна: США
Жанр: комедия, боевик, криминал

Продолжительность: 01:51:56
Перевод: Дублированный | Невафильм
Перевод: Авторский | Doctor Joker
Субтитры: русские

Режиссер: Фил Лорд, Кристофер Миллер
В ролях: Джона Хилл, Ченнинг Татум, Петер Стормаре, Уайатт Расселл, Эмбер Стивенс, Джиллиан Белл, Айс Кьюб, Ник Офферман, Джимми Татро

Описание:
Офицерам Шмидту и Дженко теперь предстоит работать под прикрытием в местном колледже. Однако когда Дженко встречает родственную душу в футбольной команде, а Шмидт проникает в богемную среду, они начинают сомневаться в их товариществе...

Мировая премьера: 4 июня 2014


Качество: BDRip 1080p Rip by DD2D3
Формат: MKV
Видео: V_MPEGH/ISO/HEVC; 1920x800 (2.40:1); 3618 Kbps; 59,940 fps; 0,039 bpp
Аудио: русский; AC3; 640 Kbps; CBR; 6 ch ||
Аудио: русский; DTS; 1509 Kbps; CBR; 6 ch 16 bit ||
Навигация по главам: есть



Общее
Уникальный идентификатор : 249597453378763804784255235694837619955 (0xBBC6B89036319C73B8BA35B5988BDCF3)
Полное имя : D:\Jump Street Dilogy (2012-2014) BDRip - HEVC 1080p 10 bit 60 FPS\22 Jump Street (2014) BDRip - HEVC 1080p 10 bit 60 FPS.mkv
Формат : Matroska
Версия формата : Version 2
Размер файла : 4,60 Гбайт
Продолжительность : 1 ч. 51 м.
Общий поток : 5 885 Кбит/сек
Название фильма : Rip by from DD2D3
Дата кодирования : UTC 2021-12-08 12:41:12
Программа кодирования : mkvmerge v7.8.0 ('River Man') 32bit built on Apr 3 2015 12:11:22
Библиотека кодирования : libebml v1.3.1 + libmatroska v1.4.2
Attachments : poster

Видео
Идентификатор : 1
Формат : HEVC
Формат/Информация : High Efficiency Video Coding
Профиль формата : Main 10@L4.1@Main
Идентификатор кодека : V_MPEGH/ISO/HEVC
Продолжительность : 1 ч. 51 м.
Битрейт : 3 619 Кбит/сек
Ширина : 1 920 пикселей
Высота : 800 пикселей
Соотношение сторон : 2,40:1
Режим частоты кадров : Постоянный
Частота кадров : 59,940 (60000/1001) кадров/сек
Цветовое пространство : YUV
Субдискретизация насыщенности : 4:2:0
Битовая глубина : 10 бит
Бит/(Пиксели*Кадры) : 0.039
Размер потока : 2,83 Гбайт (61%)
Библиотека кодирования : x265 3.5+10-82786fccc:[Windows][GCC 11.1.0][64 bit] 10bit
Настройки программы : cpuid=1111039 / frame-threads=2 / numa-pools=4 / wpp / no-pmode / no-pme / no-psnr / no-ssim / log-level=2 / input-csp=1 / input-res=1920x800 / interlace=0 / total-frames=402596 / level-idc=41 / high-tier=1 / uhd-bd=0 / ref=3 / no-allow-non-conformance / no-repeat-headers / annexb / no-aud / no-eob / no-eos / no-hrd / info / hash=0 / no-temporal-layers / open-gop / min-keyint=25 / keyint=250 / gop-lookahead=0 / bframes=4 / b-adapt=2 / b-pyramid / bframe-bias=0 / rc-lookahead=20 / lookahead-slices=5 / scenecut=40 / hist-scenecut=0 / radl=0 / no-splice / no-intra-refresh / ctu=64 / min-cu-size=8 / no-rect / no-amp / max-tu-size=32 / tu-inter-depth=1 / tu-intra-depth=1 / limit-tu=0 / rdoq-level=0 / dynamic-rd=0.00 / no-ssim-rd / signhide / no-tskip / nr-intra=0 / nr-inter=0 / no-constrained-intra / strong-intra-smoothing / max-merge=3 / limit-refs=1 / no-limit-modes / me=2 / subme=5 / merange=57 / temporal-mvp / no-frame-dup / no-hme / weightp / no-weightb / no-analyze-src-pics / deblock=0:0 / sao / no-sao-non-deblock / rd=3 / selective-sao=4 / early-skip / rskip / no-fast-intra / no-tskip-fast / no-cu-lossless / b-intra / no-splitrd-skip / rdpenalty=0 / psy-rd=0.40 / psy-rdoq=0.00 / no-rd-refine / no-lossless / cbqpoffs=0 / crqpoffs=0 / rc=abr / bitrate=3727 / qcomp=0.60 / qpstep=4 / stats-write=0 / stats-read=2 / cplxblur=20.0 / qblur=0.5 / ipratio=1.40 / pbratio=1.30 / aq-mode=2 / aq-strength=1.00 / cutree / zone-count=0 / no-strict-cbr / qg-size=32 / no-rc-grain / qpmax=69 / qpmin=0 / no-const-vbv / sar=1 / overscan=0 / videoformat=5 / range=0 / colorprim=2 / transfer=2 / colormatrix=2 / chromaloc=0 / display-window=0 / cll=0,0 / min-luma=0 / max-luma=1023 / log2-max-poc-lsb=8 / vui-timing-info / vui-hrd-info / slices=1 / no-opt-qp-pps / no-opt-ref-list-length-pps / no-multi-pass-opt-rps / scenecut-bias=0.05 / hist-threshold=0.03 / no-opt-cu-delta-qp / no-aq-motion / no-hdr10 / no-hdr10-opt / no-dhdr10-opt / no-idr-recovery-sei / analysis-reuse-level=0 / analysis-save-reuse-level=0 / analysis-load-reuse-level=0 / scale-factor=0 / refine-intra=0 / refine-inter=0 / refine-mv=1 / refine-ctu-distortion=0 / no-limit-sao / ctu-info=0 / no-lowpass-dct / refine-analysis-type=0 / copy-pic=1 / max-ausize-factor=1.0 / no-dynamic-refine / no-single-sei / no-hevc-aq / no-svt / no-field / qp-adaptation-range=1.00 / scenecut-aware-qp=0conformance-window-offsets / right=0 / bottom=0 / decoder-max-rate=0 / no-vbv-live-multi-pass
Default : Да
Forced : Нет

Аудио #1
Идентификатор : 2
Формат : AC-3
Формат/Информация : Audio Coding 3
Коммерческое название : Dolby Digital
Идентификатор кодека : A_AC3
Продолжительность : 1 ч. 51 м.
Вид битрейта : Постоянный
Битрейт : 640 Кбит/сек
Каналы : 6 каналов
Channel layout : L R C LFE Ls Rs
Частота : 48,0 КГц
Частота кадров : 31,250 кадров/сек (1536 SPF)
Метод сжатия : С потерями
Размер потока : 512 Мбайт (11%)
Заголовок : Dub
Язык : Russian
Service kind : Complete Main
Default : Да
Forced : Нет

Аудио #2
Идентификатор : 3
Формат : DTS
Формат/Информация : Digital Theater Systems
Идентификатор кодека : A_DTS
Продолжительность : 1 ч. 51 м.
Вид битрейта : Постоянный
Битрейт : 1 509 Кбит/сек
Каналы : 6 каналов
Channel layout : C L R Ls Rs LFE
Частота : 48,0 КГц
Частота кадров : 93,750 кадра/сек (512 SPF)
Битовая глубина : 16 бит
Метод сжатия : С потерями
Размер потока : 1,18 Гбайт (26%)
Заголовок : АП (Матвеев (Doctor Joker)
Язык : Russian
Default : Нет
Forced : Нет

Текст
Идентификатор : 4
Формат : UTF-8
Идентификатор кодека : S_TEXT/UTF8
Идентификатор кодека/Информация : UTF-8 Plain Text
Заголовок : Full
Язык : Russian
Default : Нет
Forced : Нет

Меню
00:00:00.000 : en:Chapter 01
00:06:21.798 : en:Chapter 02
00:13:09.371 : en:Chapter 03
00:19:57.362 : en:Chapter 04
00:26:32.173 : en:Chapter 05
00:31:30.096 : en:Chapter 06
00:36:47.246 : en:Chapter 07
00:43:49.251 : en:Chapter 08
00:51:46.394 : en:Chapter 09
00:58:58.409 : en:Chapter 10
01:07:30.588 : en:Chapter 11
01:16:28.250 : en:Chapter 12
01:23:02.602 : en:Chapter 13
01:29:51.677 : en:Chapter 14
01:35:25.469 : en:Chapter 15
01:41:57.194 : en:Chapter 16
скриншот  скриншот  скриншот  скриншот  


© Оформление by DD2D3


pb.wtf



Скачать Мачо и ботан: Дилогия через торрент http://images.vfl.ru/ii/1638968323/6e2b6bab/37011989.jpg Скачать, смотреть онлайн Мачо и ботан: Дилогия бесплантно в хорошем качестве Описание: Шмидт и Дженко люто ненавидели друг друга в школе. Однако жизнь распорядилась так, чтобы в полицейской академии они стали ... 10 10 4
Info! Золотая раздача, скачанное не засчитывается.
Торрент: Зарегистрирован [2021-12-08 13:38] · скачан: 17 раз
Статус: √ проверено
Размер: 10.09 GB
Как cкачать? Как скачать Мачо и ботан: Дилогия через торрент | UTorrent

% Раздел Тема Автор DL S | L
Сборники на DVD и Сиквелы [DVDrip, WEB-DLRip, HDrip, BDRip] [ 3.63 GB ] Мачо и ботан: Дилогия / 21 Jump Street Dilogy [2012-2014 HDRip by Dean24] Dean24 Скачать
1 | 0

28-11-2019 20:33  

Отключить всю рекламу на сайте

23-12-2021 11:49 Мачо и ботан: Дилогия Скачать торрент  

Прибавте скорости плиз!
Ну раздайте кто нибудь пожалуйста! Месяц уже скачать пытаюсь!pb.wtf



    Дорогой пользователь! Огромная просьба, поблагодарите релизера, оцените раздачу и оставьте свои комментарий, если Вы скачали Мачо и ботан: Дилогия через торрент бесплатно!
    Комментировать посты могут только пользователи прошедшие не сложную регистрацию
    Показать сообщения:    

    Мачо и ботан: Дилогия через торрент
    Скачать бесплатно Мачо и ботан: Дилогия
    Мачо и ботан: Дилогия скачать торрент
    Мачо и ботан: Дилогия смотреть онлайн
    Cкачать фильм Мачо и ботан: Дилогия бесплатно
    Мачо и ботан: Дилогия скачать торрент в хорошем качестве
    Мачо и ботан: Дилогия смотреть онлайн бесплатно в хорошем качестве


    Вы не можете начинать темы
    Вы не можете отвечать на сообщения
    Вы не можете редактировать свои сообщения
    Вы не можете удалять свои сообщения
    Вы не можете голосовать в опросах
    Вы не можете прикреплять файлы к сообщениям
    Вы можете скачивать файлы