Доктор Стрэндж

Лицензия

Добыча

MVO

Дом дракона

1 сезон

Тор

Лицензия

Мэверик

Лицензия

Там, где раки поют

MVO

Властелин колец

1 сезон

Ultimate

pack

Рекомендуем

30

Repack

ВАЖНО

ВАЖНО

Ghostwire

RePack

jed

RePack

nioh2

RePack

RDR2

RePack

NEED FOR SPEED™ PAYBACK

RePack

скачать торрент

Кинопоиск HD

Острые козырьки 6 сезон

6 сезон

FAR CRY 6

RePack

скачать торрент

Лицензия

скачать торрент

MVO

1

1 сезон

скачать торрент

1 сезон

скачать торрент

Лицензия

  

Игра с силой: История Nintendo / Playing with Power: The Nintendo Story / Сезон: 1 / Серии: 1-5 из 5 (Джереми Снид) [2021, документальный, история, видеоигры, WEBRip 1080p] [MVO] (HDrezka Studio)

Игра с силой: История Nintendo через торрент pb.wtf

Размер: 17.31 GB | Добавлен: 9 мес. назад | Торрент скачан:11 раз
| Скачать   

09-12-2021 16:56 Игра с силой: История Nintendo Скачать торрент  

Игра с силой: История Nintendo / Playing with Power: The Nintendo Story
Год выпуска: 2021
Страна: США
Жанр: документальный, история, видеоигры
Продолжительность: 5х~ 01:05:00
Перевод: Профессиональный (многоголосый закадровый) HDrezka Studio
Субтитры: Русские (форс.)

Режиссер: Джереми Снид

Описание: Документальный сериал об истории легендарной японской компании Nintendo, совершившей революцию в индустрии видеоигр.

rating

Тип релиза: WEBRip 1080p
Контейнер: MKV
Видео: MPEG-4 AVC, 8131 Kбит/с, 1920x1080
Аудио: 48 kHz, AC3, 2 Ch, ~192 kbps
General
Unique ID : 219473227808014601034076251742323662796 (0xA51D01929107B47EC765540DED9CDFCC)
Complete name : F:\Новая папка\Playing.With.Power.the.Nintendo.Story.2021.S01.1080p\Playing.With.Power.the.Nintendo.Story.S01E01.WEBRip.1080p.rus.2.0.HDREZKA.STUDIO.mkv
Format : Matroska
Format version : Version 4
File size : 4.28 GiB
Duration : 1 h 12 min
Overall bit rate mode : Variable
Overall bit rate : 8 492 kb/s
Encoded date : UTC 2021-03-22 15:14:12
Writing application : mkvmerge v28.2.0 ('The Awakening') 64-bit
Writing library : libebml v1.3.6 + libmatroska v1.4.9

Video
ID : 1
Format : AVC
Format/Info : Advanced Video Codec
Format profile : [email protected]
Format settings : CABAC / 3 Ref Frames
Format settings, CABAC : Yes
Format settings, Reference : 3 frames
Codec ID : V_MPEG4/ISO/AVC
Duration : 1 h 12 min
Bit rate mode : Variable
Bit rate : 8 131 kb/s
Maximum bit rate : 2 000 kb/s
Width : 1 920 pixels
Height : 1 080 pixels
Display aspect ratio : 16:9
Frame rate mode : Constant
Frame rate : 23.976 (24000/1001) FPS
Color space : YUV
Chroma subsampling : 4:2:0
Bit depth : 8 bits
Scan type : Progressive
Bits/(Pixel*Frame) : 0.164
Stream size : 4.09 GiB (96%)
Default : Yes
Forced : No
Duration_Source : General_Duration

Audio
ID : 2
Format : AC-3
Format/Info : Audio Coding 3
Commercial name : Dolby Digital
Codec ID : A_AC3
Duration : 1 h 12 min
Bit rate mode : Constant
Bit rate : 192 kb/s
Channel(s) : 2 channels
Channel layout : L R
Sampling rate : 48.0 kHz
Frame rate : 31.250 FPS (1536 SPF)
Compression mode : Lossy
Stream size : 99.0 MiB (2%)
Language : Russian
Service kind : Complete Main
Default : Yes
Forced : No
Duration_Source : General_Duration

Text
ID : 3
Format : UTF-8
Codec ID : S_TEXT/UTF8
Codec ID/Info : UTF-8 Plain Text
Language : Russian
Default : No
Forced : No
скриншот  скриншот  скриншот  скриншот  скриншот  



Скачать Игра с силой: История Nintendo через торрент https://i6-imageban-ru.translate.goog/out/2021/12/09/2e176b1fc0d0934823491972897999b6.jpg Скачать, смотреть онлайн Игра с силой: История Nintendo бесплантно в хорошем качестве Описание: Документальный сериал об истории легендарной японской компании Nintendo, совершившей революцию в индустрии ... 10 10 2
Info! Золотая раздача, скачанное не засчитывается.
Торрент: Зарегистрирован [2021-12-09 16:56] · скачан: 11 раз
Статус: √ проверено
Размер: 17.31 GB
Как cкачать? Как скачать Игра с силой: История Nintendo через торрент | UTorrent

28-11-2019 20:33  


Отключить вcю реклaмy на сайте, в т.ч. и в плеере онлайн просмотра!

    Дорогой пользователь! Огромная просьба, поблагодарите релизера, оцените раздачу и оставьте свои комментарий, если Вы скачали Игра с силой: История Nintendo через торрент бесплатно!!
    Комментировать посты могут только пользователи прошедшие не сложную регистрацию
    Показать сообщения:    


    Игра с силой: История Nintendo через торрент
    Скачать бесплатно Игра с силой: История Nintendo
    Игра с силой: История Nintendo скачать торрент
    Игра с силой: История Nintendo смотреть онлайн
    Cкачать фильм Игра с силой: История Nintendo бесплатно
    Игра с силой: История Nintendo скачать торрент в хорошем качестве
    Игра с силой: История Nintendo смотреть онлайн бесплатно в хорошем качестве
    Вы не можете начинать темы
    Вы не можете отвечать на сообщения
    Вы не можете редактировать свои сообщения
    Вы не можете удалять свои сообщения
    Вы не можете голосовать в опросах
    Вы не можете прикреплять файлы к сообщениям
    Вы можете скачивать файлы