Всегда рабочее зеркало без VPN и Proxy просто перед .vidak.icu напиши любое слово или цифру, Пример http://9som.vidak.icu

MVO

2 сезон

2 сезон

1

1 сезон

iTunes

2 сезон

13

1 сезон

Deluxe

pack

Рекомендуем

Пиратка

30

ВАЖНО

RePack

MK11

RePack

jed

RePack

fifa19

RePack

RDR2

RePack

NEED FOR SPEED™ PAYBACK

Кинопоиск HD

6 сезон

 Острые козырьки 6 сезон

Все сериалы

все сериалы на PB.wtf

RePack

FAR CRY 5

Anonymous, нам критически не хватает 5601 руб. на оплату серверов и переферии за Апрель, помоги нам пожалуйста, вся надежда только на тебя. В благодарность мы отключим тебе всю рекламу на сайте!

×
  
Magnet ссылка

Шан-Чи и легенда десяти колец в 3Д / Shang-Chi and the Legend of the Ten Rings 3D (Дестин Дэниел Креттон / Destin Daniel Cretton) [2021, фантастика, фэнтези, боевик, приключения, BDRip, 1080p] OverUnder / Вертикальная стереопара (Dub) pb.wtf

Шан-Чи и легенда десяти колец в 3Д через торрент pb.wtf

Размер: 18.78 GB | Добавлен: 5 мес. 2 д. назад | Торрент скачан:41 раз
Смотреть онлайн Шан-Чи и легенда десяти колец в 3Д | Скачать    Ребята, помогите собрать деньги на оплату серверов!!!

15-12-2021 13:37 Шан-Чи и легенда десяти колец в 3Д Скачать торрент  

Шан-Чи и легенда десяти колец / Shang-Chi and the Legend of the Ten Rings

Год выпуска: 2021
Страна: США, Австралия
Жанр: фантастика, фэнтези, боевик, приключения
Продолжительность: 02:12:20

Перевод: Профессиональный (дублированный)[Невафильм / КиноПоиск HD]
Русские субтитры: есть
Режиссер на русском: Дестин Дэниел Креттон / Destin Daniel Cretton
В ролях: Симу Лю, Тони Люн Чу Вай, Аквафина, Мишель Йео, Чжан Мэнъэр, Чэнь Фала, Ронни Чиэн, Флориан Мунтяну, Бен Кингсли, Юэнь Ва

Описание: Мастеру боевых искусств Шан-Чи предстоит противостоять призракам из собственного прошлого, по мере того как его втягивают в паутину интриг таинственной организации «Десять колец».

Сэмпл: http://sendfile.su/1630474

Качество: BDrip, 1080p
Контейнер: MKV
Формат 3D: OverUnder / Вертикальная стереопара
Порядок ракурсов: левый ракурс первый
Видео кодек: x264
Аудио кодек: AC3
Видео: AVC / High@L5.0 / 23,976 fps / 1920х2160 / 19,0 Мбит/сек
Аудио: Русский / AC3 / 48 KHz / 5.1 ch / 448 Кбит/сек[Невафильм / КиноПоиск HD]
Аудио 2: Английский / AC3 / 48 KHz / 5.1 ch / 448 Кбит/сек
Субтитры: Русские Форсированные

ВНИМАНИЕ ! На встроенных ТВ-плеерах работать не будет!!!

ТВ Samsung в названии которого есть надпись Ultra HD , и LG Ultra HD 800 серии, LG C6P, Xiaomi Mi TV 2, GRUNDIG VLE 8474 BL, Samsung UE48H6200AK, SUPRA STV-LC42ST960UL00 воспроизводят полные стереопары встроенными плеерами
Железные плееры на которых воспроизводятся полные стереопары:Popcorn C-200, Popcorn a-400, Dune HD Smart D1 , Dune HD DUO , Dune HD Smart H1 , Dune HD Smart B1 , Dune HD Max , Dune HD TV-303D, Dune HD TV-102, Dune HD Base 3D, Philips HMP7001, Aura HD, MECOOL BB2, Zidoo x9s, Lake I Cloud, MiBox 3
Чтобы изображение было на весь экран в плеере выставляем, если рип 1920х1600 - то выставляем 2.35:1 , если 1920х2160 - то выставляем 16:9
Общее
Уникальный идентификатор : 240437141390258122492293674890392755794 (0xB4E28250180CA34A9779BEB07FBFDE52)
Полное имя : F:\ISO\Shang-Chi and the Legend of the Ten Rings.Rip by SeRoGa00.mkv
Формат : Matroska
Версия формата : Version 2
Размер файла : 18,8 Гбайт
Продолжительность : 2 ч. 12 м.
Общий поток : 20,3 Мбит/сек
Дата кодирования : UTC 2021-12-15 07:33:44
Программа кодирования : mkvmerge v4.1.1 ('Bouncin' Back') сборка от Jul 3 2010 22:54:08
Библиотека кодирования : libebml v1.0.0 + libmatroska v1.0.0

Видео
Идентификатор : 1
Формат : AVC
Формат/Информация : Advanced Video Codec
Профиль формата : High@L5.0
Параметр CABAC формата : Да
Параметр ReFrames формата : 4 кадра
Идентификатор кодека : V_MPEG4/ISO/AVC
Продолжительность : 2 ч. 12 м.
Битрейт : 19,0 Мбит/сек
Ширина : 1920 пикселей
Высота : 2160 пикселей
Соотношение сторон : 0,889
Частота кадров : 23,976 кадра/сек
Цветовое пространство : YUV
Субдискретизация насыщенности : 4:2:0
Битовая глубина : 8 бит
Тип развёртки : Прогрессивная
Бит/(Пиксели*Кадры) : 0.191
Размер потока : 17,6 Гбайт (94%)
Заголовок : Rip by SeRoGa00
Библиотека кодирования : x264 core 157 r2969 d4099dd
Настройки программы : cabac=1 / ref=4 / deblock=1:-3:-3 / analyse=0x3:0x113 / me=umh / subme=10 / psy=1 / psy_rd=1.00:0.15 / mixed_ref=1 / me_range=24 / chroma_me=1 / trellis=2 / 8x8dct=1 / cqm=0 / deadzone=21,11 / fast_pskip=1 / chroma_qp_offset=-3 / threads=12 / lookahead_threads=6 / sliced_threads=0 / nr=0 / decimate=0 / interlaced=0 / bluray_compat=0 / constrained_intra=0 / bframes=10 / b_pyramid=2 / b_adapt=2 / b_bias=0 / direct=3 / weightb=1 / open_gop=0 / weightp=2 / keyint=250 / keyint_min=23 / scenecut=40 / intra_refresh=0 / rc_lookahead=60 / rc=crf / mbtree=1 / crf=16.5 / qcomp=0.60 / qpmin=10 / qpmax=69 / qpstep=4 / vbv_maxrate=40000 / vbv_bufsize=40000 / crf_max=0.0 / nal_hrd=none / filler=0 / ip_ratio=1.40 / aq=1:1.00
Язык : English
Default : Да
Forced : Нет

Аудио #1
Идентификатор : 2
Формат : AC-3
Формат/Информация : Audio Coding 3
Расширение режима : CM (complete main)
Параметр Endianness формата : Big
Режим смешивания : Header stripping
Идентификатор кодека : A_AC3
Продолжительность : 2 ч. 12 м.
Вид битрейта : Постоянный
Битрейт : 448 Кбит/сек
Каналы : 6 каналов
Расположение каналов : Front: L C R, Side: L R, LFE
Частота : 48,0 КГц
Битовая глубина : 16 бит
Метод сжатия : С потерями
Размер потока : 424 Мбайт (2%)
Язык : Russian
Default : Да
Forced : Нет

Аудио #2
Идентификатор : 3
Формат : AC-3
Формат/Информация : Audio Coding 3
Расширение режима : CM (complete main)
Параметр Endianness формата : Big
Режим смешивания : Header stripping
Идентификатор кодека : A_AC3
Продолжительность : 2 ч. 12 м.
Вид битрейта : Постоянный
Битрейт : 448 Кбит/сек
Каналы : 6 каналов
Расположение каналов : Front: L C R, Side: L R, LFE
Частота : 48,0 КГц
Битовая глубина : 16 бит
Метод сжатия : С потерями
Размер потока : 424 Мбайт (2%)
Язык : English
Default : Нет
Forced : Нет

Текст
Идентификатор : 4
Формат : PGS
Режим смешивания : zlib
Идентификатор кодека : S_HDMV/PGS
Идентификатор кодека/Информация : The same subtitle format used on BDs/HD-DVDs
Язык : Russian
Default : Да
Forced : Нет

Меню
00:00:00.000 : en:00:00:00.000
00:03:52.858 : en:00:03:52.858
00:09:28.985 : en:00:09:28.985
00:16:17.185 : en:00:16:17.185
00:22:47.491 : en:00:22:47.491
00:31:59.668 : en:00:31:59.668
00:42:49.484 : en:00:42:49.484
00:52:21.055 : en:00:52:21.055
00:56:51.325 : en:00:56:51.325
01:00:35.006 : en:01:00:35.006
01:08:46.122 : en:01:08:46.122
01:15:55.050 : en:01:15:55.050
01:19:51.286 : en:01:19:51.286
01:29:49.676 : en:01:29:49.676
01:36:45.800 : en:01:36:45.800
01:47:00.623 : en:01:47:00.623
01:55:25.293 : en:01:55:25.293
02:00:07.242 : en:02:00:07.242
02:01:46.132 : en:02:01:46.132
02:04:08.858 : en:02:04:08.858
02:10:39.248 : en:02:10:39.248
скриншот  

скриншот  

скриншот  

скриншот  

скриншот  

скриншот  

скриншот  

скриншот  
pb.wtf



Скачать Шан-Чи и легенда десяти колец в 3Д через торрент https://d.radikal.ru/d29/2112/43/7734518e7518.png Скачать, смотреть онлайн Шан-Чи и легенда десяти колец в 3Д бесплантно в хорошем качестве Описание: Мастеру боевых искусств Шан-Чи предстоит противостоять призракам из собственного прошлого, по мере того как его втягивают в ... 5 10 1
Торрент: Зарегистрирован [2021-12-15 13:37] · скачан: 41 раз
Статус: √ проверено
Размер: 18.78 GB
Как cкачать? Как скачать Шан-Чи и легенда десяти колец в 3Д через торрент | UTorrent

% Раздел Тема Автор DL S | L
3D Фильмы [ 11.71 GB ] Шан-Чи и легенда десяти колец в 3Д / Shang-Chi and the Legend of the Ten Rings 3D [2021 BDRip 1080p ] DUB [Невафильм] bober100 Скачать
4 | 0

28-11-2019 20:33  

Отключить всю рекламу на сайте

    Дорогой пользователь! Огромная просьба, поблагодарите релизера, оцените раздачу и оставьте свои комментарий, если Вы скачали Шан-Чи и легенда десяти колец в 3Д через торрент бесплатно!
    Комментировать посты могут только пользователи прошедшие не сложную регистрацию
    Показать сообщения:    

    Шан-Чи и легенда десяти колец в 3Д через торрент
    Скачать бесплатно Шан-Чи и легенда десяти колец в 3Д
    Шан-Чи и легенда десяти колец в 3Д скачать торрент
    Шан-Чи и легенда десяти колец в 3Д смотреть онлайн
    Cкачать фильм Шан-Чи и легенда десяти колец в 3Д бесплатно
    Шан-Чи и легенда десяти колец в 3Д скачать торрент в хорошем качестве
    Шан-Чи и легенда десяти колец в 3Д смотреть онлайн бесплатно в хорошем качестве


    Вы не можете начинать темы
    Вы не можете отвечать на сообщения
    Вы не можете редактировать свои сообщения
    Вы не можете удалять свои сообщения
    Вы не можете голосовать в опросах
    Вы не можете прикреплять файлы к сообщениям
    Вы можете скачивать файлы