Всегда рабочее зеркало без VPN и Proxy просто перед .vidak.icu напиши любое слово или цифру, Пример http://i1ia.vidak.icu

MVO

Лицензия

1 сезон

1

1 сезон

iTunes

1 сезон

13

1 сезон

Deluxe

pack

Рекомендуем

Repack

30

ВАЖНО

RePack

MK11

RePack

jed

RePack

fifa19

RePack

RDR2

RePack

NEED FOR SPEED™ PAYBACK

Кинопоиск HD

6 сезон

 Острые козырьки 6 сезон

Все сериалы

все сериалы на PB.wtf

RePack

FAR CRY 5
  
Magnet ссылка

Лебединая песня / Swan Song (Бенджамин Клири) [2021, Фантастика, драма, WEB-DL 1080p] DUB [Невафильм] pb.wtf

Лебединая песня через торрент pb.wtf

Размер: 9.67 GB | Добавлен: 6 мес. назад | Торрент скачан:293 раза
Смотреть онлайн Лебединая песня | Скачать    Ребята, помогите собрать деньги на оплату серверов!!!

17-12-2021 02:43 Лебединая песня Скачать торрент  

Лебединая песня
Swan Song

Год выпуска: 2021
Страна: США
Выпущено: Anonymous Content, Apple, Concordia Studio, Know Wonder
Жанр: Фантастика, драма
Продолжительность: 01:56:39
Перевод: Дублированный | Невафильм
Субтитры: Русские (Forced, Full, SDH), английские (Full, SDH), иврит, украинские

Режиссер: Бенджамин Клири

rating

В ролях: Махершала Али, Наоми Харрис, Гленн Клоуз, Аквафина, Адам Бич, Ли Шортен, Няша Хатенди, Люк Камиллери, Дакс Рей, ДжейР Тинако, Микайла Лагман, Шема Кэйден, Джессика Хейлс

Описание: Недалёкое будущее. Кэмерон Тёрнер — любящий муж и отец, в жизни которого случается несчастье: ему диагностируют смертельную болезнь. Мужчине делают необычное предложение — заменить себя идентичным клоном. Эта история о любви и потере показывает, как далеко мы готовы зайти и скольким пожертвовать ради счастья близких.

Качество: WEB-DL 1080p
Формат: MKV

Видео: AVC, 1920x804 (2.40:1), 23.976 fps, ~10.1 mbps
Аудио №1: E-AC3 ATMOS, 48 kHz, 6 ch, 768 kbps
Аудио №2: E-AC3 ATMOS, 48 kHz, 6 ch, 768 kbps - Тифлокомментирование
Аудио №3: E-AC3 ATMOS, 48 kHz, 6 ch, 768 kbps
скриншот  скриншот  скриншот  скриншот  

General
Unique ID : 40492190991871843097434072583098457213 (0x1E7683270B2EBD8D0E3AA535CF15DC7D)
Complete name : Swan.Song.1080p.ATVP.WEB-DL.DDP5.1.H.264-EniaHD.mkv
Format : Matroska
Format version : Version 4
File size : 9.67 GiB
Duration : 1 h 51 min
Overall bit rate : 12.4 Mb/s
Movie name : Swan Song (2021) - EniaHD
Writing application : mkvmerge v57.0.0 ('Till The End') 64-bit
Writing library : libebml v1.4.2 + libmatroska v1.6.4

Video
ID : 1
Format : AVC
Format/Info : Advanced Video Codec
Format profile : [email protected]
Format settings : CABAC / 5 Ref Frames
Format settings, CABAC : Yes
Format settings, Reference fra : 5 frames
Codec ID : V_MPEG4/ISO/AVC
Duration : 1 h 51 min
Bit rate : 10.1 Mb/s
Width : 1 918 pixels
Height : 802 pixels
Display aspect ratio : 2.40:1
Frame rate mode : Constant
Frame rate : 23.976 (24000/1001) FPS
Color space : YUV
Chroma subsampling : 4:2:0
Bit depth : 8 bits
Scan type : Progressive
Bits/(Pixel*Frame) : 0.273
Stream size : 7.86 GiB (81%)
Default : Yes
Forced : No
Color range : Limited
Color primaries : BT.709
Transfer characteristics : BT.709
Matrix coefficients : BT.709

Audio #1
ID : 2
Format : E-AC-3 JOC
Format/Info : Enhanced AC-3 with Joint Object Coding
Commercial name : Dolby Digital Plus with Dolby Atmos
Codec ID : A_EAC3
Duration : 1 h 51 min
Bit rate mode : Constant
Bit rate : 768 kb/s
Channel(s) : 6 channels
Channel layout : L R C LFE Ls Rs
Sampling rate : 48.0 kHz
Frame rate : 31.250 FPS (1536 SPF)
Compression mode : Lossy
Stream size : 615 MiB (6%)
Language : Russian
Service kind : Complete Main
Default : Yes
Forced : No
Complexity index : 16
Number of dynamic objects : 15
Bed channel count : 1 channel
Bed channel configuration : LFE

Audio #2
ID : 3
Format : E-AC-3 JOC
Format/Info : Enhanced AC-3 with Joint Object Coding
Commercial name : Dolby Digital Plus with Dolby Atmos
Codec ID : A_EAC3
Duration : 1 h 51 min
Bit rate mode : Constant
Bit rate : 768 kb/s
Channel(s) : 6 channels
Channel layout : L R C LFE Ls Rs
Sampling rate : 48.0 kHz
Frame rate : 31.250 FPS (1536 SPF)
Compression mode : Lossy
Stream size : 615 MiB (6%)
Title : Audio Deion
Language : Russian
Service kind : Complete Main
Default : No
Forced : No
Complexity index : 16
Number of dynamic objects : 15
Bed channel count : 1 channel
Bed channel configuration : LFE

Audio #3
ID : 4
Format : E-AC-3 JOC
Format/Info : Enhanced AC-3 with Joint Object Coding
Commercial name : Dolby Digital Plus with Dolby Atmos
Codec ID : A_EAC3
Duration : 1 h 51 min
Bit rate mode : Constant
Bit rate : 768 kb/s
Channel(s) : 6 channels
Channel layout : L R C LFE Ls Rs
Sampling rate : 48.0 kHz
Frame rate : 31.250 FPS (1536 SPF)
Compression mode : Lossy
Stream size : 615 MiB (6%)
Language : English
Service kind : Complete Main
Default : No
Forced : No
Complexity index : 16
Number of dynamic objects : 15
Bed channel count : 1 channel
Bed channel configuration : LFE

Text #1
ID : 5
Format : UTF-8
Codec ID : S_TEXT/UTF8
Codec ID/Info : UTF-8 Plain Text
Duration : 1 h 25 min
Bit rate : 3 b/s
Count of elements : 46
Stream size : 2.49 KiB (0%)
Title : Forced
Language : Russian
Default : Yes
Forced : No

Text #2
ID : 6
Format : UTF-8
Codec ID : S_TEXT/UTF8
Codec ID/Info : UTF-8 Plain Text
Duration : 1 h 43 min
Bit rate : 60 b/s
Count of elements : 940
Stream size : 45.4 KiB (0%)
Language : Russian
Default : No
Forced : No

Text #3
ID : 7
Format : UTF-8
Codec ID : S_TEXT/UTF8
Codec ID/Info : UTF-8 Plain Text
Duration : 1 h 43 min
Bit rate : 73 b/s
Count of elements : 1156
Stream size : 55.6 KiB (0%)
Title : SDH
Language : Russian
Default : No
Forced : No

Text #4
ID : 8
Format : UTF-8
Codec ID : S_TEXT/UTF8
Codec ID/Info : UTF-8 Plain Text
Duration : 1 h 41 min
Bit rate : 37 b/s
Count of elements : 922
Stream size : 27.9 KiB (0%)
Language : English
Default : No
Forced : No

Text #5
ID : 9
Format : UTF-8
Codec ID : S_TEXT/UTF8
Codec ID/Info : UTF-8 Plain Text
Duration : 1 h 46 min
Bit rate : 45 b/s
Count of elements : 1149
Stream size : 35.1 KiB (0%)
Title : SDH
Language : English
Default : No
Forced : No

Text #6
ID : 10
Format : UTF-8
Codec ID : S_TEXT/UTF8
Codec ID/Info : UTF-8 Plain Text
Duration : 1 h 51 min
Bit rate : 46 b/s
Count of elements : 956
Stream size : 38.0 KiB (0%)
Language : Hebrew
Default : No
Forced : No

Text #7
ID : 11
Format : UTF-8
Codec ID : S_TEXT/UTF8
Codec ID/Info : UTF-8 Plain Text
Duration : 1 h 51 min
Bit rate : 49 b/s
Count of elements : 953
Stream size : 40.5 KiB (0%)
Language : Ukrainian
Default : No
Forced : No

pb.wtf



Скачать Лебединая песня через торрент https://i7.imageban.ru/out/2021/12/16/779f2fbf9bc8b79a493e7406fd03a8fc.jpg Скачать, смотреть онлайн Лебединая песня бесплантно в хорошем качестве Описание: Недалёкое будущее. Кэмерон Тёрнер — любящий муж и отец, в жизни которого случается несчастье: ему диагностируют смертельную ... 9.8 10 10
Торрент: Зарегистрирован [2021-12-17 02:43] · скачан: 293 раз
Статус: √ проверено
Размер: 9.67 GB
Как cкачать? Как скачать Лебединая песня через торрент | UTorrent

% Раздел Тема Автор DL S | L
Фильмы 2021 [DVDrip, WEB-DLRip, HDrip] (DUB, MVO) [ 2.27 GB ] Лебединая песня / Swan Song [2021 WEB-DLRip-AVC] DUB [Невафильм] от ExKinoRay Lithuania Скачать
3 | 0
Фильмы 2021 [DVDrip, WEB-DLRip, HDrip] (DUB, MVO) [ 2.18 GB ] Лебединая песня / Swan Song [2021 WEB-DLRip] - [Невафильм] Twi7ter Скачать
3 | 0
Фильмы 2021 [DVDrip, WEB-DLRip, HDrip] (DUB, MVO) [ 1.46 GB ] Лебединая песня / Swan Song [2021 WEB-DLRip] - [Невафильм] Twi7ter Скачать
19 | 0
Фильмы 2021 [DVDrip, WEB-DLRip, HDrip] (DUB, MVO) [ 1.45 GB ] Лебединая песня / Swan Song [2021 WEB-DLRip-AVC] DUB [Невафильм] bober100 Скачать
2 | 0
Фильмы 2021 [DVDrip, WEB-DLRip, HDrip] (DUB, MVO) [ 2.15 GB ] Лебединая песня / Swan Song [2021 WEB-DLRip] DUB [Невафильм] bober100 Скачать
6 | 0
Фильмы 2021 [DVDrip, WEB-DLRip, HDrip] (DUB, MVO) [ 1.45 GB ] Лебединая песня / Swan Song [2021 WEB-DLRip] DUB [Невафильм] bober100 Скачать
1 | 0

28-11-2019 20:33  

Отключить всю рекламу на сайте

    Дорогой пользователь! Огромная просьба, поблагодарите релизера, оцените раздачу и оставьте свои комментарий, если Вы скачали Лебединая песня через торрент бесплатно!
    Комментировать посты могут только пользователи прошедшие не сложную регистрацию
    Показать сообщения:    

    Лебединая песня через торрент
    Скачать бесплатно Лебединая песня
    Лебединая песня скачать торрент
    Лебединая песня смотреть онлайн
    Cкачать фильм Лебединая песня бесплатно
    Лебединая песня скачать торрент в хорошем качестве
    Лебединая песня смотреть онлайн бесплатно в хорошем качестве


    Вы не можете начинать темы
    Вы не можете отвечать на сообщения
    Вы не можете редактировать свои сообщения
    Вы не можете удалять свои сообщения
    Вы не можете голосовать в опросах
    Вы не можете прикреплять файлы к сообщениям
    Вы можете скачивать файлы