Всегда рабочее зеркало просто перед .vidak.icu напиши любое слово или цифру, Пример http://56w.vidak.icu

>

7.4

iTunes

7.4

2 сезон

6.6

iTunes

1

7.4

2 сезон

7.2

iTunes

6.0

MVO

13

6.1

iTunes

8.3

Пиратка

30

ULTIMATE

pack

9.9

Лицензия

ВАЖНО

ИГРА 18+

pack

7.3

RePack

MK11

7.7

RePack

jed

7.8

RePack

fifa19

8.5

RePack

RDR2

RePack

NEED FOR SPEED™ PAYBACK

1 сезон

9 сезон

Бесстыжие 9 сезон

Все сериалы

все сериалы на PB.wtf

RePack

FAR CRY 5

Anonymous, добрый день, мы катастрофически не успеваем собрать деньги на оплату серверов, помогите нам пожалуйста 5,10,15р., для нас важна любая помощь . В качестве благодарности мы отключим Вам всю рекламу на сайте (укажите свой ник в строку Ваше имя)!

×
  
Magnet ссылка

Станция одиннадцать / Station Eleven / Сезон: 1 / Серии: 1-10 из 10 (Хиро Мурай) [2021, Фантастика, триллер, драма, детектив, WEB-DL 720p] [MVO] (HDRezka Studio) pb.wtf

Станция одиннадцать через торрент pb.wtf

Раздают: 7 [ 256 KB/s ]
Размер: 15.13 GB | Добавлен: 8 д. назад | Торрент скачан:69 раз
Смотреть онлайн Станция одиннадцать | Скачать    Ребята, помогите собрать деньги на оплату серверов!!!

17-12-2021 09:17 Станция одиннадцать Скачать торрент  


Станция одиннадцать / Station Eleven




Год выпуска: 2021
Страна: США
Жанр: Фантастика, триллер, драма, детектив
Продолжительность: ~00:46:00
Перевод: Профессиональный (многоголосый) - HDRezka Studio
Субтитры: русские (forced), английские

Режиссёр: Хиро Мурай
В ролях: Джо Пинг, Маккензи Дэвис, Даниэль Дедуайлер, Химеш Патель, Дэвид Уилмот, Набхан Ризван, Дилан Тейлор, Матильда Лоулер, Филиппина Вельж, Дебора Кокс

Описание: Человечество не справилось с пандемией вируса: 20 лет спустя после гибельной эпидемии труппа странствующих актеров колесит по постапокалиптической Америке, ставит пьесы Шекспира и пополняет припасы в заброшенным домах. Актерам предстоит столкновение с последователями зловещего религиозного культа и их лидером по прозвищу Пророк, захватившими Влacть в небольшом городке в районе Великих озер.

rating

Качество: WEB-DL 720p
Формат: MKV
Видео: AVC, 1280х720, ~3 400 kbps, 23,976 fps
Аудио 1: 48 kHz, AC3 Dolby Digital, 6 ch, ~448 kbps avg - HDRezka Studio
Аудио 2: 48 kHz, AC3 Dolby Digital, 6 ch, ~384 kbps avg - Original Eng




скриншот  скриншот  скриншот  скриншот  скриншот  
General
Unique ID : 250229795479015527048982405103267893258 (0xBC40816F98F6E617B41DC02A7AF0500A)
Complete name : F:\Station Eleven.S01.HMAX.WEB-DL.720p.xz\Station Eleven.S01E01.HMAX.WEB-DL (720p).[MVO](HDRezka Studio).xz.mkv
Format : Matroska
Format version : Version 4
File size : 1.35 GiB
Duration : 45 min 33 s
Overall bit rate mode : Variable
Overall bit rate : 4 227 kb/s
Movie name : Station Eleven.S01E01.HMAX.WEB-DL (720p).[MVO](HDRezka Studio).xz / Station Eleven - S01E01 - Wheel of Fire
Encoded date : UTC 2021-12-17 09:12:46
Writing application : mkvmerge v6.1.0 ('Old Devil') built on Mar 2 2013 14:32:37
Writing library : libebml v1.3.0 + libmatroska v1.4.0
IMDB : tt10574236
TMDB : tv/90972
TVDB : 366529

Video
ID : 1
Format : AVC
Format/Info : Advanced Video Codec
Format profile : Main@L3.1
Format settings : CABAC / 4 Ref Frames
Format settings, CABAC : Yes
Format settings, Reference : 4 frames
Codec ID : V_MPEG4/ISO/AVC
Duration : 45 min 33 s
Bit rate mode : Variable
Bit rate : 3 400 kb/s
Maximum bit rate : 5 100 kb/s
Width : 1 280 pixels
Height : 720 pixels
Display aspect ratio : 16:9
Frame rate mode : Constant
Frame rate : 23.976 (24000/1001) FPS
Color space : YUV
Chroma subsampling : 4:2:0
Bit depth : 8 bits
Scan type : Progressive
Bits/(Pixel*Frame) : 0.154
Stream size : 1.05 GiB (78%)
Title : Station Eleven.S01E01.HMAX.WEB-DL (720p).[MVO](HDRezka Studio).xz
Writing library : x264 core 157 r2965 861cec4
Encoding settings : cabac=1 / ref=4 / deblock=1:0:0 / analyse=0x1:0x111 / me=hex / subme=7 / psy=1 / psy_rd=1.00:0.00 / mixed_ref=1 / me_range=16 / chroma_me=1 / trellis=1 / 8x8dct=0 / cqm=0 / deadzone=21,11 / fast_pskip=1 / chroma_qp_offset=-2 / threads=22 / lookahead_threads=3 / sliced_threads=0 / nr=0 / decimate=1 / interlaced=0 / bluray_compat=0 / constrained_intra=0 / bframes=3 / b_pyramid=2 / b_adapt=1 / b_bias=0 / direct=1 / weightb=1 / open_gop=0 / weightp=2 / keyint=96 / keyint_min=96 / scenecut=40 / intra_refresh=0 / rc_lookahead=40 / rc=2pass / mbtree=1 / bitrate=3400 / ratetol=1.0 / qcomp=0.60 / qpmin=0 / qpmax=69 / qpstep=4 / cplxblur=20.0 / qblur=0.5 / vbv_maxrate=5100 / vbv_bufsize=2550 / nal_hrd=vbr / filler=0 / ip_ratio=1.40 / aq=1:1.00
Default : Yes
Forced : No
Color range : Limited
Color primaries : BT.709
Transfer characteristics : BT.709
Matrix coefficients : BT.709
Statistics Tags Issue : mkvmerge v59.0.0 ('Shining Star') 64-bit 2021-12-16 08:06:04 / mkvmerge v6.1.0 ('Old Devil') built on Mar 2 2013 14:32:37 2021-12-17 09:12:46
FromStats_BitRate : 3392962
FromStats_Duration : 00:45:33.564000000
FromStats_FrameCount : 65540
FromStats_StreamSize : 1159360119
Duration_Source : General_Duration

Audio #1
ID : 2
Format : AC-3
Format/Info : Audio Coding 3
Commercial name : Dolby Digital
Codec ID : A_AC3
Duration : 45 min 33 s
Bit rate mode : Constant
Bit rate : 448 kb/s
Channel(s) : 6 channels
Channel layout : L R C LFE Ls Rs
Sampling rate : 48.0 kHz
Frame rate : 31.250 FPS (1536 SPF)
Compression mode : Lossy
Stream size : 146 MiB (11%)
Title : HDRezka Studio
Language : Russian
Service kind : Complete Main
Default : Yes
Forced : No
Duration_Source : General_Duration

Audio #2
ID : 3
Format : AC-3
Format/Info : Audio Coding 3
Commercial name : Dolby Digital
Codec ID : A_AC3
Duration : 45 min 33 s
Bit rate mode : Constant
Bit rate : 384 kb/s
Channel(s) : 6 channels
Channel layout : L R C LFE Ls Rs
Sampling rate : 48.0 kHz
Frame rate : 31.250 FPS (1536 SPF)
Compression mode : Lossy
Stream size : 125 MiB (9%)
Title : Eng
Language : English
Service kind : Complete Main
Default : No
Forced : No
Statistics Tags Issue : mkvmerge v59.0.0 ('Shining Star') 64-bit 2021-12-16 08:06:04 / mkvmerge v6.1.0 ('Old Devil') built on Mar 2 2013 14:32:37 2021-12-17 09:12:46
FromStats_BitRate : 384000
FromStats_Duration : 00:45:33.536000000
FromStats_FrameCount : 85423
FromStats_StreamSize : 131209728
Duration_Source : General_Duration

Text #1
ID : 4
Format : UTF-8
Codec ID : S_TEXT/UTF8
Codec ID/Info : UTF-8 Plain Text
Title : rus (forced)
Language : Russian
Default : Yes
Forced : No

Text #2
ID : 5
Format : UTF-8
Codec ID : S_TEXT/UTF8
Codec ID/Info : UTF-8 Plain Text
Language : English
Default : No
Forced : No
Statistics Tags Issue : mkvmerge v59.0.0 ('Shining Star') 64-bit 2021-12-16 08:06:04 / mkvmerge v6.1.0 ('Old Devil') built on Mar 2 2013 14:32:37 2021-12-17 09:12:46
FromStats_BitRate : 47
FromStats_Duration : 00:42:26.444000000
FromStats_FrameCount : 502
FromStats_StreamSize : 15107

Text #3
ID : 6
Format : UTF-8
Codec ID : S_TEXT/UTF8
Codec ID/Info : UTF-8 Plain Text
Title : SDH
Language : English
Default : No
Forced : No
Statistics Tags Issue : mkvmerge v59.0.0 ('Shining Star') 64-bit 2021-12-16 08:06:04 / mkvmerge v6.1.0 ('Old Devil') built on Mar 2 2013 14:32:37 2021-12-17 09:12:46
FromStats_BitRate : 59
FromStats_Duration : 00:43:57.534000000
FromStats_FrameCount : 654
FromStats_StreamSize : 19535
Внимание! Раздача ведётся путём добавления новых серий; при каждом добавлении создаётся новый торрент. Чтобы начать докачку новой серии, пользователям необходимо сделать следующее:
(1) остановить скачивание,
(2) удалить старый торрент у себя из клиента (старые серии удалять не надо),
(3) скачать новый торрент и запустить его у себя в клиенте вместо старого, при этом указать клиенту путь в старую папку куда и должно происходить скачивание новых серий.

Ваш клиент при этом должен произвести хеширование (проверку) старой папки (если не производит сам - помогите ему сделать это), и будет докачивать только те серии которых у вас ещё нет. Старые серии при этом не удаляются, а продолжают раздаваться!

Eсли вы уже удалили старые серии, то предотвратить повторную закачку старых серий можно, отжав галочку в соответствующих местах при запуске нового торрента. По возможности, желательно не удалять старые серии как можно дольше чтобы релизёр не столько продолжал раздавать старые серии, а смог сконцентрироваться на новых.
pb.wtf



Скачать Станция одиннадцать через торрент https://i2.imageban.ru/out/2021/12/17/600546c841ed90188406ece9a541e2e7.jpg Скачать, смотреть онлайн Станция одиннадцать бесплантно в хорошем качестве Описание: Человечество не справилось с пандемией вируса: 20 лет спустя после гибельной эпидемии труппа странствующих актеров колесит по ... 7.6 10 13
Торрент: Зарегистрирован [2022-01-14 11:07] · скачан: 69 раз
Статус: √ проверено
Размер: 15.13 GB
Как cкачать? Как скачать Станция одиннадцать через торрент | UTorrent

% Раздел Тема Автор DL S | L
Зарубежные сериалы [ 7.15 GB ] Станция одиннадцать / Station Eleven / Сезон: 1 / Серии: 1-10 из 10 [2021 WEB-DLRip] MVO [HDRezka Studio] bober100 Скачать
7 | 0
Зарубежные сериалы [ 8.95 GB ] Станция одиннадцать / Station Eleven / Сезон: 1 / Серии: 1-3 из 10 [2021 WEB-DL 1080p] MVO [HDRezka Studio] bober100 Скачать
4 | 0


Последний раз редактировалось: killermax2013 (2022-01-14 11:07), всего редактировалось 1 раз

28-11-2019 20:33  

Отключить всю рекламу на сайте

07-01-2022 15:08 Станция одиннадцать Скачать торрент  

спасибо. девять серий глянул.буду смотреть заключительную.зайдет конечно не всем.очень много всяких бесед,филосовщины,размышлений разных,бесед.некоторые серии просто скучные.я то вроде вьехал в оконцовке в тему.-надо досматривать.pb.wtf



    Дорогой пользователь! Огромная просьба, поблагодарите релизера, оцените раздачу и оставьте свои комментарий, если Вы скачали Станция одиннадцать через торрент бесплатно!
    Комментировать посты могут только пользователи прошедшие не сложную регистрацию
    Показать сообщения:    

    Станция одиннадцать через торрент
    Скачать бесплатно Станция одиннадцать
    Станция одиннадцать скачать торрент
    Станция одиннадцать смотреть онлайн
    Cкачать фильм Станция одиннадцать бесплатно
    Станция одиннадцать скачать торрент в хорошем качестве
    Станция одиннадцать смотреть онлайн бесплатно в хорошем качестве


    Вы не можете начинать темы
    Вы не можете отвечать на сообщения
    Вы не можете редактировать свои сообщения
    Вы не можете удалять свои сообщения
    Вы не можете голосовать в опросах
    Вы не можете прикреплять файлы к сообщениям
    Вы можете скачивать файлы