Всегда рабочее зеркало без VPN и Proxy просто перед .vidak.icu напиши любое слово или цифру, Пример http://c9g8.vidak.icu

MVO

2 сезон

1 сезон

1

1 сезон

iTunes

2 сезон

13

1 сезон

Deluxe

pack

Рекомендуем

Пиратка

30

ВАЖНО

RePack

MK11

RePack

jed

RePack

fifa19

RePack

RDR2

RePack

NEED FOR SPEED™ PAYBACK

Кинопоиск HD

6 сезон

 Острые козырьки 6 сезон

Все сериалы

все сериалы на PB.wtf

RePack

FAR CRY 5

Anonymous, нам критически не хватает 5601 руб. на оплату серверов и переферии за Апрель, помоги нам пожалуйста, вся надежда только на тебя. В благодарность мы отключим тебе всю рекламу на сайте!

×
  
Magnet ссылка

Семейка Аддамс: Горящий тур / The Addams Family 2 (Грег Тирнан, Конрад Вернон, Лаура Бруссо) [2021, Мультфильм, ужасы, фэнтези, комедия, приключения, семейный, BDRip-AVC] DUB [ iTunes] от ExKinoRay pb.wtf

Семейка Аддамс: Горящий тур через торрент pb.wtf

Размер: 1.8 GB | Добавлен: 4 мес. 14 д. назад | Торрент скачан:21 раз
Смотреть онлайн Семейка Аддамс: Горящий тур | Скачать    Ребята, помогите собрать деньги на оплату серверов!!!

17-12-2021 20:50 Семейка Аддамс: Горящий тур Скачать торрент  


Семейка Аддамс: Горящий тур / The Addams Family 2
Информация о фильме:
Название: Семейка Аддамс: Горящий тур
Оригинальное название: The Addams Family 2
Год выхода: 2021
Жанр: Мультфильм, ужасы, фэнтези, комедия, приключения, семейный
Режиссер: Грег Тирнан, Конрад Вернон, Лаура Бруссо

В ролях: Оскар Айзек, Шарлиз Терон, Хлоя Грейс Морец, Джейвон Уолтон, Ник Кролл, Снуп Догг, Бетт Мидлер, Конрад Вернон, Билл Хейдер, Уоллес Шоун

Описание: Мортиша и Гомес в ужасе от того, как быстро растут их дети, которые все чаще пропускают семейные обеды, предпочитая этому куда более леденящие кровь занятия. Поэтому родители решают взять Венсди, Пагсли и дядю Фестера в не слишком счастливую совместную поездку на своем призрачном кемпере. Что может пойти не так в этом странном путешествии семейки Аддамс?



Страна: США, Канада
Студия: BermanBraun, Bron Creative, Bron Studios, Cinesite Animation, Creative Wealth Media Finance, Glickmania, Metro-Goldwyn-Mayer (MGM)
Продолжительность: 01:32:43
Перевод: Дублированный - iTunes



Информация о файле:
Кодек: AVC
Формат: MKV
Качество: BDRip-AVC
Видео: MPEG-4 AVC, 1024x554, 23.976 fps, 1950 kb/s
Аудио RU: AC3, 6 ch, 48 kHz, 384 kbps
Аудио EN: AC3, 6 ch, 48 kHz, 448 kbps
Субтитры: Русские (Forced, full), английские

x264 info: frame I:1131 Avg QP:15.78 size: 87100
x264 info: frame P:34188 Avg QP:19.77 size: 19858
x264 info: frame B:98112 Avg QP:22.01 size: 5905
x264 info: consecutive B-frames: 3.5% 4.9% 14.2% 30.9% 14.6% 26.2% 3.3% 1.2% 0.9% 0.1% 0.1%
General
Unique ID : 331600250864643380717686068490065325101 (0xF977E2A118F95B469D84F4D74D82AC2D)
Complete name : D:uTorrentРипы wolf1245The Addams Family 2.2021.DUB.iTunes.BDRip-AVC.[wolf1245.ExKinoRay].mkv
Format : Matroska
Format version : Version 4
File size : 1.80 GiB
Duration : 1 h 32 min
Overall bit rate : 2 785 kb/s
Movie name : The Addams Family 2.2021.DUB.iTunes.BDRip-AVC.[wolf1245.ExKinoRay]
Encoded date : UTC 2022-01-12 18:12:29
Writing application : mkvmerge v64.0.0 ('Willows') 64-bit
Writing library : libebml v1.4.2 + libmatroska v1.6.4
Video
ID : 1
Format : AVC
Format/Info : Advanced Video Codec
Format profile : High@L4.1
Format settings : CABAC / 12 Ref Frames
Format settings, CABAC : Yes
Format settings, Reference frames : 12 frames
Codec ID : V_MPEG4/ISO/AVC
Duration : 1 h 32 min
Bit rate : 1 950 kb/s
Width : 1 024 pixels
Height : 554 pixels
Display aspect ratio : 1.85:1
Frame rate mode : Constant
Frame rate : 23.976 (24000/1001) FPS
Color space : YUV
Chroma subsampling : 4:2:0
Bit depth : 8 bits
Scan type : Progressive
Bits/(Pixel*Frame) : 0.143
Stream size : 1.26 GiB (70%)
Title : -=[wolf1245.ExKinoRay]=-
Writing library : x264 core 163 r3060 5db6aa6
Encoding settings : cabac=1 / ref=12 / deblock=1:-3:-3 / analyse=0x3:0x133 / me=umh / subme=10 / psy=1 / psy_rd=1.05:0.10 / mixed_ref=1 / me_range=48 / chroma_me=1 / trellis=2 / 8x8dct=1 / cqm=0 / deadzone=21,11 / fast_pskip=1 / chroma_qp_offset=-3 / threads=10 / lookahead_threads=2 / sliced_threads=0 / nr=0 / decimate=0 / interlaced=0 / bluray_compat=0 / constrained_intra=0 / bframes=10 / b_pyramid=2 / b_adapt=2 / b_bias=0 / direct=3 / weightb=1 / open_gop=0 / weightp=2 / keyint=240 / keyint_min=24 / scenecut=40 / intra_refresh=0 / rc_lookahead=60 / rc=2pass / mbtree=0 / bitrate=1950 / ratetol=1.0 / qcomp=0.60 / qpmin=0 / qpmax=69 / qpstep=4 / cplxblur=20.0 / qblur=0.5 / vbv_maxrate=50000 / vbv_bufsize=62500 / nal_hrd=none / filler=0 / ip_ratio=1.40 / pb_ratio=1.30 / aq=1:0.80
Language : English
Default : Yes
Forced : No
Color range : Limited
Color primaries : BT.709
Matrix coefficients : BT.709
Audio #1
ID : 2
Format : AC-3
Format/Info : Audio Coding 3
Commercial name : Dolby Digital
Codec ID : A_AC3
Duration : 1 h 32 min
Bit rate mode : Constant
Bit rate : 384 kb/s
Channel(s) : 6 channels
Channel layout : L R C LFE Ls Rs
Sampling rate : 48.0 kHz
Frame rate : 31.250 FPS (1536 SPF)
Compression mode : Lossy
Stream size : 255 MiB (14%)
Title : Dub | iTunes
Language : Russian
Service kind : Complete Main
Default : Yes
Forced : Yes
Audio #2
ID : 3
Format : AC-3
Format/Info : Audio Coding 3
Commercial name : Dolby Digital
Codec ID : A_AC3
Duration : 1 h 32 min
Bit rate mode : Constant
Bit rate : 448 kb/s
Channel(s) : 6 channels
Channel layout : L R C LFE Ls Rs
Sampling rate : 48.0 kHz
Frame rate : 31.250 FPS (1536 SPF)
Compression mode : Lossy
Stream size : 297 MiB (16%)
Title : Original
Language : English
Service kind : Complete Main
Default : Yes
Forced : No
Text #1
ID : 4
Format : UTF-8
Codec ID : S_TEXT/UTF8
Codec ID/Info : UTF-8 Plain Text
Duration : 1 h 25 min
Bit rate : 2 b/s
Count of elements : 45
Stream size : 1.52 KiB (0%)
Title : Forced
Language : Russian
Default : Yes
Forced : Yes
Text #2
ID : 5
Format : UTF-8
Codec ID : S_TEXT/UTF8
Codec ID/Info : UTF-8 Plain Text
Duration : 1 h 25 min
Bit rate : 96 b/s
Count of elements : 1211
Stream size : 60.3 KiB (0%)
Title : Full
Language : Russian
Default : No
Forced : No
Text #3
ID : 6
Format : UTF-8
Codec ID : S_TEXT/UTF8
Codec ID/Info : UTF-8 Plain Text
Duration : 1 h 27 min
Bit rate : 56 b/s
Count of elements : 1437
Stream size : 36.1 KiB (0%)
Title : Full
Language : English
Default : No
Forced : No
Text #4
ID : 7
Format : UTF-8
Codec ID : S_TEXT/UTF8
Codec ID/Info : UTF-8 Plain Text
Duration : 1 h 27 min
Bit rate : 80 b/s
Count of elements : 1870
Stream size : 51.8 KiB (0%)
Title : SDH
Language : English
Default : No
Forced : No
Релиз от:
Автор релиза:
pb.wtf



Скачать Семейка Аддамс: Горящий тур через торрент https://i116.fastpic.org/big/2021/1217/01/e8ffaaa418f3e2e998a16fe6f95dbc01.jpg Скачать, смотреть онлайн Семейка Аддамс: Горящий тур бесплантно в хорошем качестве Описание: Мортиша и Гомес в ужасе от того, как быстро растут их дети, которые все чаще пропускают семейные обеды, предпочитая этому куда ... 10 10 4
Торрент: Зарегистрирован [2022-01-12 18:27] · скачан: 21 раз
Статус: √ проверено
Размер: 1.8 GB
Как cкачать? Как скачать Семейка Аддамс: Горящий тур через торрент | UTorrent

28-11-2019 20:33  

Отключить всю рекламу на сайте

    Дорогой пользователь! Огромная просьба, поблагодарите релизера, оцените раздачу и оставьте свои комментарий, если Вы скачали Семейка Аддамс: Горящий тур через торрент бесплатно!
    Комментировать посты могут только пользователи прошедшие не сложную регистрацию
    Показать сообщения:    

    Семейка Аддамс: Горящий тур через торрент
    Скачать бесплатно Семейка Аддамс: Горящий тур
    Семейка Аддамс: Горящий тур скачать торрент
    Семейка Аддамс: Горящий тур смотреть онлайн
    Cкачать фильм Семейка Аддамс: Горящий тур бесплатно
    Семейка Аддамс: Горящий тур скачать торрент в хорошем качестве
    Семейка Аддамс: Горящий тур смотреть онлайн бесплатно в хорошем качестве


    Вы не можете начинать темы
    Вы не можете отвечать на сообщения
    Вы не можете редактировать свои сообщения
    Вы не можете удалять свои сообщения
    Вы не можете голосовать в опросах
    Вы не можете прикреплять файлы к сообщениям
    Вы можете скачивать файлы