Всегда рабочее зеркало без VPN и Proxy просто перед .vidak.icu напиши любое слово или цифру, Пример http://jwxx.vidak.icu

MVO

Лицензия

1 сезон

1

1 сезон

iTunes

1 сезон

13

1 сезон

Deluxe

pack

Рекомендуем

Пиратка

30

ВАЖНО

RePack

MK11

RePack

jed

RePack

fifa19

RePack

RDR2

RePack

NEED FOR SPEED™ PAYBACK

Кинопоиск HD

6 сезон

 Острые козырьки 6 сезон

Все сериалы

все сериалы на PB.wtf

RePack

FAR CRY 5
  
Magnet ссылка

Лощина мертвецов / Death Valley (Мэтью Нинабер) [2021, Ужасы, боевик, WEB-DL 1080p] [DUB] [iTunes] pb.wtf

Лощина мертвецов через торрент pb.wtf

Размер: 4.03 GB | Добавлен: 6 мес. назад | Торрент скачан:184 раза
Смотреть онлайн Лощина мертвецов | Скачать    Ребята, помогите собрать деньги на оплату серверов!!!

20-12-2021 15:27 Лощина мертвецов Скачать торрент  

Лощина мертвецов / Death Valley Год выхода: 2021
Страна: Канада
Жанр: Ужасы, боевик
Продолжительность: 01:33:12
Перевод: Профессиональный (полное дублирование) | Pride Production | iTunes

Режиссер: Мэтью Нинабер

В ролях: Джереми Нинабер, Итан Митчелл, Кристен Кастер, Мэтью Нинабер, Мэтт Дашью, Жаклин Нинабер, Джона Фортин, Мелисса Джой Бергер, Джастин Моусес, Джефф Уотерс

О фильме: Отряд специального назначения получает задание остановить нападение на лабораторию по производству биологического оружия. По прибытии на место бойцы узнают, что ученым удалось вывести вирус, который полностью меняет облик и поведение человека, превращая его в кровожадного зомби. Эксперимент вышел из-под контроля, и жуткие монстры оказались на свободе. У этих тварей только одна цель — нападать на всё, что движется или издает звук. При нападении они заражают людей, которые под действием вируса сначала умирают, а потом возвращаются к жизни лишь для того, чтобы продолжить заражать всё живое.

rating

Качество: WEB-DL 1080p
Формат: MKV
Видео: MPEG-4 AVC, 1920x800, 5582 Kbps, 24.000 fps
Аудио 1: Russian: АС3, 5.1 ch, 48 kHz, 384 kbps | iTunes
Аудио 2: English: E-AC3, 2 ch, 48 kHz, 224 kbps | Original
Субтитры: Английские (SDH)
скриншот  скриншот  скриншот  
General

Unique ID : 193944057504589015841156032292402277283 (0x91E8444C3EB190EC828949107204ABA3)

Complete name : Death.Valley.2021.WEB-DL.1080p.mkv

Format : Matroska

Format version : Version 4 / Version 2

File size : 4.03 GiB

Duration : 1 h 33 min

Overall bit rate : 6 192 kb/s

Encoded date : UTC 2021-12-20 13:44:43

Writing application : mkvmerge v7.3.0 ('Nouages') 64bit built on Oct 22 2014 18:53:34

Writing library : libebml v1.3.0 + libmatroska v1.4.1

Video

ID : 1

Format : AVC

Format/Info : Advanced Video Codec

Format profile : High@L4

Format settings, CABAC : Yes

Format settings, RefFrames : 4 frames

Codec ID : V_MPEG4/ISO/AVC

Duration : 1 h 33 min

Bit rate mode : Constant

Bit rate : 5 582 kb/s

Nominal bit rate : 10 000 kb/s

Width : 1 920 pixels

Height : 800 pixels

Display aspect ratio : 2.40:1

Frame rate mode : Constant

Frame rate : 24.000 FPS

Color space : YUV

Chroma subsampling : 4:2:0

Bit depth : 8 bits

Scan type : Progressive

Bits/(Pixel*Frame) : 0.151

Stream size : 3.63 GiB (90%)

Language : English

Default : Yes

Forced : No

Color range : Limited

Color primaries : BT.709

Transfer characteristics : BT.709

Matrix coefficients : BT.709

Audio #1

ID : 2

Format : AC-3

Format/Info : Audio Coding 3

Format settings, Endianness : Big

Codec ID : A_AC3

Duration : 1 h 33 min

Bit rate mode : Constant

Bit rate : 384 kb/s

Channel(s) : 6 channels

Channel positions : Front: L C R, Side: L R, LFE

Sampling rate : 48.0 kHz

Frame rate : 31.250 FPS (1536 SPF)

Bit depth : 16 bits

Compression mode : Lossy

Stream size : 256 MiB (6%)

Title : Дубляж (iTunes)

Language : Russian

Service kind : Complete Main

Default : Yes

Forced : No

Audio #2

ID : 3

Format : E-AC-3

Format/Info : Enhanced Audio Coding 3

Format settings, Endianness : Big

Codec ID : A_EAC3

Duration : 1 h 33 min

Bit rate mode : Constant

Bit rate : 224 kb/s

Channel(s) : 2 channels

Channel positions : Front: L R

Sampling rate : 48.0 kHz

Frame rate : 187.500 FPS (256 SPF)

Compression mode : Lossy

Stream size : 149 MiB (4%)

Title : Original

Language : English

Service kind : Complete Main

Default : No

Forced : No

Text

ID : 4

Format : UTF-8

Codec ID : S_TEXT/UTF8

Codec ID/Info : UTF-8 Plain Text

Duration : 1 h 30 min

Bit rate : 55 b/s

Count of elements : 1561

Stream size : 36.7 KiB (0%)

Title : SDH

Language : English

Default : No

Forced : No
pb.wtf



Скачать Лощина мертвецов через торрент https://c.radikal.ru/c36/2112/f4/2bac98d72b0a.jpg Скачать, смотреть онлайн Лощина мертвецов бесплантно в хорошем качестве О фильме: Отряд специального назначения получает задание остановить нападение на лабораторию по производству биологического оружия. По ... 10 10 8
Торрент: Зарегистрирован [2021-12-20 15:27] · скачан: 184 раз
Статус: √ проверено
Размер: 4.03 GB
Как cкачать? Как скачать Лощина мертвецов через торрент | UTorrent

% Раздел Тема Автор DL S | L
Фильмы 2021 [DVDrip, WEB-DLRip, HDrip] (DUB, MVO) [ 745 MB ] Лощина мертвецов / Death Valley [2021 HDRip] DUB [Pride Production] bober100 Скачать
3 | 0
Фильмы [HD 720p, 1080p] (Хороший звук DUB, MVO) [ 7 GB ] Лощина мертвецов / Death Valley [2021 BDRip 1080p] DUB [Pride Production] bober100 Скачать
5 | 0
Фильмы 2021 [DVDrip, WEB-DLRip, HDrip] (DUB, MVO) [ 1.42 GB ] Лощина мертвецов / Death Valley [2021 WEB-DLRip-AVC] от ExKinoRay Lithuania Скачать
2 | 0
Фильмы 2021 [DVDrip, WEB-DLRip, HDrip] (DUB, MVO) [ 716 MB ] Лощина мертвецов / Death Valley [2021 WEB-DLRip ""] coc900 Скачать
1 | 0
Фильмы 2021 [DVDrip, WEB-DLRip, HDrip] (DUB, MVO) [ 1.49 GB ] Лощина мертвецов / Death Valley [2021 HDRip-AVC] DUB [Pride Production] bober100 Скачать
1 | 0
Фильмы 2021 [DVDrip, WEB-DLRip, HDrip] (DUB, MVO) [ 1.47 GB ] Лощина мертвецов / Death Valley [2021 WEB-DLRip] killermax2013 Скачать
1 | 0

28-11-2019 20:33  

Отключить всю рекламу на сайте

21-12-2021 18:56 Лощина мертвецов Скачать торрент  

М-да, "шляпа", если уж совсем делать нечего)))pb.wtf



26-12-2021 18:30 Лощина мертвецов Скачать торрент  

Что это за хрень??? Что это за хрень???pb.wtf



08-05-2022 03:05 Лощина мертвецов Скачать торрент  

Miragka88 писал(а):

Что это за хрень??? Что это за хрень???

почему ты повторяешь все по 2 раза?)pb.wtf



    Дорогой пользователь! Огромная просьба, поблагодарите релизера, оцените раздачу и оставьте свои комментарий, если Вы скачали Лощина мертвецов через торрент бесплатно!
    Комментировать посты могут только пользователи прошедшие не сложную регистрацию
    Показать сообщения:    

    Лощина мертвецов через торрент
    Скачать бесплатно Лощина мертвецов
    Лощина мертвецов скачать торрент
    Лощина мертвецов смотреть онлайн
    Cкачать фильм Лощина мертвецов бесплатно
    Лощина мертвецов скачать торрент в хорошем качестве
    Лощина мертвецов смотреть онлайн бесплатно в хорошем качестве


    Вы не можете начинать темы
    Вы не можете отвечать на сообщения
    Вы не можете редактировать свои сообщения
    Вы не можете удалять свои сообщения
    Вы не можете голосовать в опросах
    Вы не можете прикреплять файлы к сообщениям
    Вы можете скачивать файлы