Всегда рабочее зеркало без VPN и Proxy просто перед .vidak.icu напиши любое слово или цифру, Пример http://e66h.vidak.icu

MVO

Лицензия

1 сезон

1

1 сезон

iTunes

1 сезон

13

1 сезон

Deluxe

pack

Рекомендуем

Repack

30

ВАЖНО

RePack

MK11

RePack

jed

RePack

fifa19

RePack

RDR2

RePack

NEED FOR SPEED™ PAYBACK

Кинопоиск HD

6 сезон

 Острые козырьки 6 сезон

Все сериалы

все сериалы на PB.wtf

RePack

FAR CRY 5
  
Magnet ссылка

Дракулов (Илья Куликов) [2021, Комедия, мистика, ужасы, WEB-DL 1080p] [ОККО] pb.wtf

Дракулов через торрент pb.wtf

Размер: 3.14 GB | Добавлен: 6 мес. назад | Торрент скачан:508 раз
Смотреть онлайн Дракулов | Скачать    Ребята, помогите собрать деньги на оплату серверов!!!

21-12-2021 10:16 Дракулов Скачать торрент  

Дракулов
Год выпуска: 2021
Страна: Россия
Выпущено: Legio Felix, Peak Media, НМГ Студия
Жанр: Комедия, мистика, ужасы
Продолжительность: 01:26:40
Перевод: Не требуется | ОККО
Субтитры: отсутствуют

Режиссер: Илья Куликов



В ролях: Михаил Галустян, Денис Васильев, Татьяна Бабенкова, Алексей Золотовицкий, Александр Мартынов (IV), Надежда Сысоева, Наталья Краснова (II), Мария Лисовая, Дмитрий Блохин, Роман Попов, Иван Агапов

Описание: Российская империя. Юрист Петр Смирнов приезжает в мрачное имение загадочного графа Дракулова, чьи предки родом из далекой Трансильвании, чтобы оформить покупку дома в Москве. Граф замечает фотокарточку невесты Петра, юной Вари, и немедленно срывается проинспектировать свою новую недвижимость… Петр обеспокоен, но его бдительность усыпляют старательные служанки графа. Правда, вскоре Смирнов обнаруживает, что девушки – вурдалаки, а это значит, что и их хозяин, граф Дракулов, – опасный кровопийца! Петр сбегает из демонической усадьбы и спешит в Москву, чтобы защитить свою невесту от трехсотлетнего вампира. Помочь ему в этом – или помешать – могут лучшая подруга Вари, Соня, и ее странные кавалеры, а также сын знаменитого профессора Ван Хельсинга Вася.

Качество: WEB-DL 1080p
Формат: MKV

Видео: MPEG-4 AVC, 5000 Кбит/с, 1920x800
Аудио: 48.0 kHz, AC3 Dolby Digital, 2/0 (L,R) ch, ~ 192 kbps
скриншот  скриншот  скриншот  скриншот  

Complete name : Drakulov.2021.WEB-DL.1080p.ELEKTRI4KA.UNIONGANG.mkv
Format : Matroska
Format version : Version 4
File size : 3.14 GiB
Duration : 1 h 26 min
Overall bit rate : 5 189 kb/s
Movie name : Drakulov.2021.WEB-DL.1080p.ELEKTRI4KA.UNIONGANG.
Encoded date : UTC 2021-12-21 08:54:41
Writing application : mkvmerge v8.3.0 ('Over the Horizon') 32bit
Writing library : libebml v1.3.1 + libmatroska v1.4.2

Video
ID : 1
Format : AVC
Format/Info : Advanced Video Codec
Format profile : [email protected]
Format settings : CABAC / 3 Ref Frames
Format settings, CABAC : Yes
Format settings, Reference frames : 3 frames
Codec ID : V_MPEG4/ISO/AVC
Duration : 1 h 26 min
Bit rate : 5 000 kb/s
Width : 1 920 pixels
Height : 800 pixels
Display aspect ratio : 2.40:1
Frame rate mode : Constant
Frame rate : 24.000 FPS
Color space : YUV
Chroma subsampling : 4:2:0
Bit depth : 8 bits
Scan type : Progressive
Bits/(Pixel*Frame) : 0.136
Stream size : 3.03 GiB (96%)
Writing library : x264 core 161 r3048 b86ae3c
Encoding settings : cabac=1 / ref=4 / deblock=1:1:1 / analyse=0x3:0x133 / me=umh / subme=9 / psy=1 / psy_rd=0.40:1.00 / mixed_ref=1 / me_range=24 / chroma_me=1 / trellis=0 / 8x8dct=1 / cqm=0 / deadzone=21,11 / fast_pskip=1 / chroma_qp_offset=-2 / threads=25 / lookahead_threads=2 / sliced_threads=0 / nr=0 / decimate=1 / interlaced=0 / bluray_compat=0 / constrained_intra=0 / bframes=8 / b_pyramid=1 / b_adapt=1 / b_bias=0 / direct=3 / weightb=1 / open_gop=0 / weightp=2 / keyint=72 / keyint_min=37 / scenecut=0 / intra_refresh=0 / rc_lookahead=30 / rc=2pass / mbtree=1 / bitrate=5000 / ratetol=1.0 / qcomp=0.80 / qpmin=1 / qpmax=69 / qpstep=4 / cplxblur=20.0 / qblur=0.5 / vbv_maxrate=7500 / vbv_bufsize=10000 / nal_hrd=none / filler=0 / ip_ratio=1.40 / aq=1:1.00
Default : Yes
Forced : No
Color range : Limited
Color primaries : BT.709
Transfer characteristics : BT.709
Matrix coefficients : BT.709

Audio
ID : 2
Format : AC-3
Format/Info : Audio Coding 3
Commercial name : Dolby Digital
Codec ID : A_AC3
Duration : 1 h 26 min
Bit rate mode : Constant
Bit rate : 192 kb/s
Channel(s) : 2 channels
Channel layout : L R
Sampling rate : 48.0 kHz
Frame rate : 31.250 FPS (1536 SPF)
Compression mode : Lossy
Stream size : 119 MiB (4%)
Title : Original (OKKO)
Language : Russian
Service kind : Complete Main
Default : Yes
Forced : Yes

pb.wtf



Скачать Дракулов через торрент https://i116.fastpic.org/big/2021/1221/77/a4a9825489ff754802fdc7b3e588fe77.jpg Скачать, смотреть онлайн Дракулов бесплантно в хорошем качестве Описание: Российская империя. Юрист Петр Смирнов приезжает в мрачное имение загадочного графа Дракулова, чьи предки родом из далекой ... 9.6 10 20
Торрент: Зарегистрирован [2021-12-21 10:16] · скачан: 508 раз
Статус: T временная
Размер: 3.14 GB
Как cкачать? Как скачать Дракулов через торрент | UTorrent

% Раздел Тема Автор DL S | L
T Наши новые фильмы 2020 - 2022 [ 1.46 GB ] Дракулов [2021 WEB-DLRip-AVC] [ОККО] bober100 Скачать
3 | 1
T Наши новые фильмы 2020 - 2022 [ 1.22 GB ] Дракулов [2021 WEB-DLRip] [ОККО] bober100 Скачать
1 | 0
? Оформление раздач (Кино, Видео и ТВ) [ 2.9 GB ] Дракула Брэма Стокера / Bram Stoker's Dracula [1992 вампиры экранизация BDRip-AVC 60 FPS ] alien2015 Скачать
1 | 0
Зарубежные сериалы [ 17.89 GB ] Дракула / Dracula / Сезон: 1 / Серии: 1-3 из 3 [2020 WEB-DL 720p] MVO [TVShows] bober100 Скачать
1 | 0
Зарубежные сериалы [ 30.42 GB ] Дракула / Dracula / Сезон: 1 / Серии: 1-3 из 3 [2020 WEB-DL 1080p] MVO [TVShows] bober100 Скачать
1 | 0
Зарубежные сериалы [ 4.55 GB ] Дракула / Dracula / Сезон: 1 / Серии: 1-3 из 3 [2020 WEB-DL 720p] MVO [Jaskier] bober100 Скачать
1 | 0
Зарубежные сериалы [ 9.27 GB ] Дракула / Dracula / Сезон: 1 / Серии: 1-3 из 3 [2020 WEB-DL 1080p] MVO [Jaskier] bober100 Скачать
1 | 0

28-11-2019 20:33  

Отключить всю рекламу на сайте

21-12-2021 14:50 Дракулов Скачать торрент  

Ебаааать трэшак pb.wtf



21-12-2021 15:26 Дракулов Скачать торрент  

Галустян не спасает ?pb.wtf



21-12-2021 17:15 Дракулов Скачать торрент  

tirion stark писал(а):

Ебаааать трэшак

Ждём обзор от Баженова pb.wtf



24-12-2021 14:35 Дракулов Скачать торрент  

жека бажен бохpb.wtf



25-12-2021 21:45 Дракулов Скачать торрент  

Как по мне, так очень даже неплохо. Конечно до усрачного идиотизма Л.Нильсена ещё далековато, но с сериями Очень страшного кина стоит вровень,+ рассейский менталитет, без утырков нигеров, очень даже неплохо. Тока у страшного кина рейт 5-7, а здесь почему-то 3!?? Кто оценивает? Задроты пропагандонцы, с колен вставанцы?? Хотя на рейт в последнее время - думаю не стоит смотреть, у последней Обители говна. Раком всети- 5,5 - откуда мля нахер?!! 2-2,5 максимум!pb.wtf



    Дорогой пользователь! Огромная просьба, поблагодарите релизера, оцените раздачу и оставьте свои комментарий, если Вы скачали Дракулов через торрент бесплатно!
    Комментировать посты могут только пользователи прошедшие не сложную регистрацию
    Показать сообщения:    

    Дракулов через торрент
    Скачать бесплатно Дракулов
    Дракулов скачать торрент
    Дракулов смотреть онлайн
    Cкачать фильм Дракулов бесплатно
    Дракулов скачать торрент в хорошем качестве
    Дракулов смотреть онлайн бесплатно в хорошем качестве


    Вы не можете начинать темы
    Вы не можете отвечать на сообщения
    Вы не можете редактировать свои сообщения
    Вы не можете удалять свои сообщения
    Вы не можете голосовать в опросах
    Вы не можете прикреплять файлы к сообщениям
    Вы можете скачивать файлы