Всегда рабочее зеркало без VPN и Proxy просто перед .vidak.icu напиши любое слово или цифру, Пример http://eari.vidak.icu

MVO

MVO

1 сезон

1

1 сезон

iTunes

1 сезон

13

1 сезон

Deluxe

pack

Рекомендуем

Repack

30

ВАЖНО

RePack

MK11

RePack

jed

RePack

fifa19

RePack

RDR2

RePack

NEED FOR SPEED™ PAYBACK

Кинопоиск HD

6 сезон

 Острые козырьки 6 сезон

Все сериалы

все сериалы на PB.wtf

RePack

FAR CRY 5
  
Magnet ссылка

Последний поезд в Рождество / Last Train to Christmas (Джулиан Кемп) [2021, комедия, драма, фэнтези, WEB-DLRip-AVC] DVO [Pazl Voice] от ExKinoRay pb.wtf

Смотреть онлайн Последний поезд в Рождество | Скачать    Ребята, помогите собрать деньги на оплату серверов!!!

25-12-2021 11:00 Последний поезд в Рождество Скачать торрент  


Последний поезд в Рождество / Last Train to Christmas
Информация о фильме:
Название: Последний поезд в Рождество
Оригинальное название: Last Train to Christmas
Год выхода: 2021
Жанр: комедия, драма, фэнтези
Режиссер: Джулиан Кемп

В ролях: Натали Эммануэль, Кэри Элвес, Майкл Шин, Робин Эсквив, Миа Маккенна-Брюс, Софи Симнетт, Шианад Грегори, Джон Томсон, Анна Лундберг, Натали Мицон, Томас Ло, Клер Кейдж, Лаура Эвелин, Эдвард Харрисон, Гарри Джубилео

Описание: Тони - беззаботный владелец клуба в Англии конца 80-х. Его дело процветает и у парня светлые жизненные перспективы. В канун рождества он едет со своей невестой Сью в родной город, познакомить её с родными. Но, перейдя в другой вагон, он вдруг понимает, что оказался в будущем. Печально то, что это будущее совсем не такое блестящее, каким себе его представлял молодой человек. В попытке вернуть всё обратно, он возвращается обратно и понимает, что до приезда поезда на последнюю станцию должен придумать, как избежать трагической участи.



Страна: Великобритания
Студия: FAE Film and Television, Stigma Films
Продолжительность: 01:50:00
Перевод: Любительский (двухголосый, закадровый) - Pazl Voice



Информация о файле:
Кодек: AVC
Формат: MKV
Качество: WEB-DLRip-AVC
Видео: MPEG-4 AVC, 1024x576, 25.000 fps, 1600 kbps
Аудио RU: AC3, 6 ch, 48 kHz, 448 kbps | Tnx.KinoPub
Аудио EN: AC3, 6 ch, 48 kHz, 192 kbps
Субтитры: Русские (full (PhysKids)), английские

x264 info: frame I:1516 Avg QP:15.78 size: 50583
x264 info: frame P:36240 Avg QP:20.22 size: 17381
x264 info: frame B:127104 Avg QP:22.07 size: 4814
x264 info: consecutive B-frames: 2.1% 2.5% 11.0% 18.4% 13.5% 49.7% 1.4% 0.4% 0.2% 0.2% 0.7%
General
Unique ID : 21797513206844635002899954933162970146 (0x10660C5FFFAA74B07290CCC29AB20C22)
Complete name : D:uTorrentРипы wolf1245Last Train to Christmas.2021.DVO.Pazl.WEB-DLRip-AVC.[wolf1245.ExKinoRay] .mkv
Format : Matroska
Format version : Version 4
File size : 1.72 GiB
Duration : 1 h 50 min
Overall bit rate : 2 240 kb/s
Movie name : Last Train to Christmas.2021.DVO.Pazl.WEB-DLRip-AVC.[wolf1245.ExKinoRay]
Encoded date : UTC 2021-12-25 10:46:42
Writing application : mkvmerge v63.0.0 ('Everything') 64-bit
Writing library : libebml v1.4.2 + libmatroska v1.6.4
Video
ID : 1
Format : AVC
Format/Info : Advanced Video Codec
Format profile : [email protected]
Format settings : CABAC / 10 Ref Frames
Format settings, CABAC : Yes
Format settings, Reference frames : 10 frames
Codec ID : V_MPEG4/ISO/AVC
Duration : 1 h 49 min
Bit rate : 1 600 kb/s
Width : 1 024 pixels
Height : 576 pixels
Display aspect ratio : 16:9
Frame rate mode : Constant
Frame rate : 25.000 FPS
Color space : YUV
Chroma subsampling : 4:2:0
Bit depth : 8 bits
Scan type : Progressive
Bits/(Pixel*Frame) : 0.109
Stream size : 1.23 GiB (71%)
Title : -=[wolf1245.ExKinoRay]=-
Writing library : x264 core 163 r3060 5db6aa6
Encoding settings : cabac=1 / ref=10 / deblock=1:-2:-2 / analyse=0x3:0x133 / me=umh / subme=10 / psy=1 / psy_rd=1.05:0.15 / mixed_ref=1 / me_range=32 / chroma_me=1 / trellis=2 / 8x8dct=1 / cqm=0 / deadzone=21,11 / fast_pskip=1 / chroma_qp_offset=-3 / threads=10 / lookahead_threads=2 / sliced_threads=0 / nr=0 / decimate=0 / interlaced=0 / bluray_compat=0 / constrained_intra=0 / bframes=10 / b_pyramid=2 / b_adapt=2 / b_bias=0 / direct=3 / weightb=1 / open_gop=0 / weightp=2 / keyint=250 / keyint_min=25 / scenecut=40 / intra_refresh=0 / rc_lookahead=60 / rc=2pass / mbtree=0 / bitrate=1600 / ratetol=1.0 / qcomp=0.60 / qpmin=0 / qpmax=69 / qpstep=4 / cplxblur=20.0 / qblur=0.5 / vbv_maxrate=50000 / vbv_bufsize=62500 / nal_hrd=none / filler=0 / ip_ratio=1.40 / pb_ratio=1.30 / aq=3:0.80
Language : English
Default : Yes
Forced : No
Audio #1
ID : 2
Format : AC-3
Format/Info : Audio Coding 3
Commercial name : Dolby Digital
Codec ID : A_AC3
Duration : 1 h 50 min
Bit rate mode : Constant
Bit rate : 448 kb/s
Channel(s) : 6 channels
Channel layout : L R C LFE Ls Rs
Sampling rate : 48.0 kHz
Frame rate : 31.250 FPS (1536 SPF)
Compression mode : Lossy
Stream size : 352 MiB (20%)
Title : [DVO] Pazl Voice
Language : Russian
Service kind : Complete Main
Default : Yes
Forced : No
Audio #2
ID : 3
Format : AC-3
Format/Info : Audio Coding 3
Commercial name : Dolby Digital
Codec ID : A_AC3
Duration : 1 h 49 min
Bit rate mode : Constant
Bit rate : 192 kb/s
Channel(s) : 6 channels
Channel layout : L R C LFE Ls Rs
Sampling rate : 48.0 kHz
Frame rate : 31.250 FPS (1536 SPF)
Compression mode : Lossy
Stream size : 151 MiB (9%)
Title : Original
Language : English
Service kind : Complete Main
Default : Yes
Forced : No
Text #1
ID : 4
Format : UTF-8
Codec ID : S_TEXT/UTF8
Codec ID/Info : UTF-8 Plain Text
Duration : 1 h 45 min
Bit rate : 104 b/s
Count of elements : 1797
Stream size : 80.6 KiB (0%)
Title : [full [PhysKids]]
Language : Russian
Default : No
Forced : No
Text #2
ID : 5
Format : UTF-8
Codec ID : S_TEXT/UTF8
Codec ID/Info : UTF-8 Plain Text
Duration : 1 h 44 min
Bit rate : 68 b/s
Count of elements : 1870
Stream size : 52.5 KiB (0%)
Language : English
Default : No
Forced : No
Menu
01:47:54.044 : :Credits
Релиз от:
Автор релиза:
pb.wtf



Скачать
Чтобы иметь возможность скачивать с Торрент Трекера, нужно Зарегистрироваться

Как скачивать  ·  Рейтинг и ограничения

28-11-2019 20:33  

Отключить вcю реклaмy на сайте

    Дорогой пользователь! Огромная просьба, поблагодарите релизера, оцените раздачу и оставьте свои комментарий, если Вы скачали Последний поезд в Рождество через торрент бесплатно!
    Комментировать посты могут только пользователи прошедшие не сложную регистрацию
    Показать сообщения:    

    Последний поезд в Рождество через торрент
    Скачать бесплатно Последний поезд в Рождество
    Последний поезд в Рождество скачать торрент
    Последний поезд в Рождество смотреть онлайн
    Cкачать фильм Последний поезд в Рождество бесплатно
    Последний поезд в Рождество скачать торрент в хорошем качестве
    Последний поезд в Рождество смотреть онлайн бесплатно в хорошем качестве


    Вы не можете начинать темы
    Вы не можете отвечать на сообщения
    Вы не можете редактировать свои сообщения
    Вы не можете удалять свои сообщения
    Вы не можете голосовать в опросах
    Вы не можете прикреплять файлы к сообщениям
    Вы не можете скачивать файлы