Всегда рабочее зеркало без VPN и Proxy просто перед .vidak.icu напиши любое слово или цифру, Пример http://lvrd.vidak.icu

MVO

MVO

1 сезон

1

1 сезон

iTunes

1 сезон

13

1 сезон

Deluxe

pack

Рекомендуем

Repack

30

ВАЖНО

RePack

MK11

RePack

jed

RePack

fifa19

RePack

RDR2

RePack

NEED FOR SPEED™ PAYBACK

Кинопоиск HD

6 сезон

 Острые козырьки 6 сезон

Все сериалы

все сериалы на PB.wtf

RePack

FAR CRY 5
  
Magnet ссылка

Волк / Wolf (Натали Бьянчери) [2021, Триллер, Драма, Детектив, WEB-DLRip-AVC] DVO [Pazl Voice] от ExKinoRay pb.wtf

Смотреть онлайн Волк | Скачать    Ребята, помогите собрать деньги на оплату серверов!!!

25-12-2021 16:41 Волк Скачать торрент  


Волк / Wolf
Информация о фильме:
Название: Волк
Оригинальное название: Wolf
Год выхода: 2021
Жанр: Триллер, Драма, Детектив
Режиссер: Натали Бьянчери

В ролях: Лили-Роуз Депп, Джордж Маккэй, Пэдди Консидайн, Мартин МакКанн, Терри Нотари, Фионн О’Ши, Лола Петтикрю, Айлин Уолш, Сенан Дженнингс, Хэлен Биэн, Эми Мэкен, Карис Янсен, Джон Вульф, Дарра Шеннон, Коллин Кеог

Описание: Джейкоб — волк, запертый в человеческом теле. Оказавшись в специализированной клинике, он, вместе с другими животными, испытывает на себе жестокие методы лечения. Но все меняется после знакомства с Дикой кошкой.



Страна: Великобритания, Польша, Ирландия
Студия: Feline Films, Head Gear Films, Kreo Films FZ, Lava Films, Metrol Technology
Продолжительность: 01:39:50
Перевод: Любительский (двухголосый, закадровый) - Pazl Voice



Информация о файле:
Кодек: AVC
Формат: MKV
Качество: WEB-DLRip-AVC
Видео: MPEG-4 AVC, 1024x552, 23.976 fps, 2000 kbps
Аудио RU: AC3, 6 ch, 48 kHz, 448 kbps
Аудио EN: AC3, 6 ch, 48 kHz, 448 kbps
Субтитры: Английские

x264 info: frame I:737 Avg QP:15.06 size: 76685
x264 info: frame P:28283 Avg QP:17.75 size: 22898
x264 info: frame B:114611 Avg QP:19.19 size: 6900
x264 info: consecutive B-frames: 2.3% 2.8% 5.4% 10.7% 12.1% 33.1% 12.3% 5.1% 9.8% 2.2% 4.0%
General
Unique ID : 221427505978786302650122760312147860066 (0xA69562ECEA85A6D10D1E9D4B04BEDA62)
Complete name : D:uTorrentРипы wolf1245Wolf.2021.DVO.Pazl.WEB-DLRip-AVC.[wolf1245.ExKinoRay].mkv
Format : Matroska
Format version : Version 4
File size : 2.02 GiB
Duration : 1 h 39 min
Overall bit rate : 2 894 kb/s
Movie name : Wolf.2021.DVO.Pazl.WEB-DLRip-AVC.[wolf1245.ExKinoRay]
Encoded date : UTC 2021-12-25 16:30:14
Writing application : mkvmerge v63.0.0 ('Everything') 64-bit
Writing library : libebml v1.4.2 + libmatroska v1.6.4
Video
ID : 1
Format : AVC
Format/Info : Advanced Video Codec
Format profile : [email protected]
Format settings : CABAC / 10 Ref Frames
Format settings, CABAC : Yes
Format settings, Reference frames : 10 frames
Codec ID : V_MPEG4/ISO/AVC
Duration : 1 h 39 min
Bit rate : 2 000 kb/s
Width : 1 024 pixels
Height : 552 pixels
Display aspect ratio : 1.85:1
Frame rate mode : Constant
Frame rate : 23.976 (24000/1001) FPS
Color space : YUV
Chroma subsampling : 4:2:0
Bit depth : 8 bits
Scan type : Progressive
Bits/(Pixel*Frame) : 0.148
Stream size : 1.39 GiB (69%)
Title : -=[wolf1245.ExKinoRay]=-
Writing library : x264 core 163 r3060 5db6aa6
Encoding settings : cabac=1 / ref=10 / deblock=1:-3:-3 / analyse=0x3:0x133 / me=umh / subme=10 / psy=1 / psy_rd=1.05:0.15 / mixed_ref=1 / me_range=32 / chroma_me=1 / trellis=2 / 8x8dct=1 / cqm=0 / deadzone=21,11 / fast_pskip=1 / chroma_qp_offset=-3 / threads=10 / lookahead_threads=2 / sliced_threads=0 / nr=0 / decimate=0 / interlaced=0 / bluray_compat=0 / constrained_intra=0 / bframes=10 / b_pyramid=2 / b_adapt=2 / b_bias=0 / direct=3 / weightb=1 / open_gop=0 / weightp=2 / keyint=240 / keyint_min=24 / scenecut=40 / intra_refresh=0 / rc_lookahead=60 / rc=2pass / mbtree=0 / bitrate=2000 / ratetol=1.0 / qcomp=0.60 / qpmin=0 / qpmax=69 / qpstep=4 / cplxblur=20.0 / qblur=0.5 / vbv_maxrate=50000 / vbv_bufsize=62500 / nal_hrd=none / filler=0 / ip_ratio=1.40 / pb_ratio=1.30 / aq=3:1.00
Language : English
Default : Yes
Forced : No
Color range : Limited
Color primaries : BT.709
Transfer characteristics : BT.709
Matrix coefficients : BT.709
Audio #1
ID : 2
Format : AC-3
Format/Info : Audio Coding 3
Commercial name : Dolby Digital
Codec ID : A_AC3
Duration : 1 h 39 min
Bit rate mode : Constant
Bit rate : 448 kb/s
Channel(s) : 6 channels
Channel layout : L R C LFE Ls Rs
Sampling rate : 48.0 kHz
Frame rate : 31.250 FPS (1536 SPF)
Compression mode : Lossy
Stream size : 320 MiB (15%)
Title : [DVO] Pazl Voice
Language : Russian
Service kind : Complete Main
Default : Yes
Forced : No
Audio #2
ID : 3
Format : AC-3
Format/Info : Audio Coding 3
Commercial name : Dolby Digital
Codec ID : A_AC3
Duration : 1 h 39 min
Bit rate mode : Constant
Bit rate : 448 kb/s
Channel(s) : 6 channels
Channel layout : L R C LFE Ls Rs
Sampling rate : 48.0 kHz
Frame rate : 31.250 FPS (1536 SPF)
Compression mode : Lossy
Stream size : 320 MiB (15%)
Title : Original
Language : English
Service kind : Complete Main
Default : Yes
Forced : No
Text
ID : 4
Format : UTF-8
Codec ID : S_TEXT/UTF8
Codec ID/Info : UTF-8 Plain Text
Duration : 1 h 38 min
Bit rate : 41 b/s
Count of elements : 1203
Stream size : 30.1 KiB (0%)
Title : English
Language : English
Default : No
Forced : No
Релиз от:
Автор релиза:
pb.wtf



Скачать
Чтобы иметь возможность скачивать с Торрент Трекера, нужно Зарегистрироваться

Как скачивать  ·  Рейтинг и ограничения

28-11-2019 20:33  

Отключить вcю реклaмy на сайте

    Дорогой пользователь! Огромная просьба, поблагодарите релизера, оцените раздачу и оставьте свои комментарий, если Вы скачали Волк через торрент бесплатно!
    Комментировать посты могут только пользователи прошедшие не сложную регистрацию
    Показать сообщения:    

    Волк через торрент
    Скачать бесплатно Волк
    Волк скачать торрент
    Волк смотреть онлайн
    Cкачать фильм Волк бесплатно
    Волк скачать торрент в хорошем качестве
    Волк смотреть онлайн бесплатно в хорошем качестве


    Вы не можете начинать темы
    Вы не можете отвечать на сообщения
    Вы не можете редактировать свои сообщения
    Вы не можете удалять свои сообщения
    Вы не можете голосовать в опросах
    Вы не можете прикреплять файлы к сообщениям
    Вы не можете скачивать файлы