Доктор Стрэндж

Лицензия

Добыча

Дубляж

Дом дракона

1 сезон

Тор

Дубляж

В эфире

Дубляж

Там, где раки поют

MVO

Властелин колец

1 сезон

GLOBAL

pack

Рекомендуем

30

Пиратка

ВАЖНО

ВАЖНО

Ghostwire

Пиратка

jed

RePack

nioh2

RePack

RDR2

RePack

NEED FOR SPEED™ PAYBACK

RePack

скачать торрент

Кинопоиск HD

Острые козырьки 6 сезон

6 сезон

FAR CRY 6

RePack

скачать торрент

Лицензия

скачать торрент

MVO

1

1 сезон

скачать торрент

1 сезон

скачать торрент

Лицензия

  

Без сна / Sleep No More (Филлип Гузман) [2017, Ужасы, BD Remux 1080p] MVO [HDRezka]

Без сна через торрент pb.wtf

Размер: 13.91 GB | Добавлен: 11 мес. назад | Торрент скачан:32 раза
Смотреть онлайн | Скачать   

26-12-2021 09:50 Без сна Скачать торрент  

Без сна
Sleep No More

Год выпуска: 2017
Страна: США
Студия: Arcanum Pictures, Incendiary Features
Жанр: Ужасы
Продолжительность: 01:31:01
Перевод: Профессиональный (многоголосый) | HDRezka
Субтитры: Английские, испанские

Режиссер: Филлип Гузман

rating

В ролях: Кели Прайс, Бриа Грант, Стивен Эллис, Кристин Двайер, Ясмин Акер, Лукас Гейдж, Джеймс Хоар, Эмили Харт, Мона Ли Фульц, Брэд Мауле

Описание: 1980-е годы. Группа студентов медицинского вуза проводит исследования влияния на организм долгого лишения сна с целью избавить человечество от необходимости тратить треть жизни на сон. После того как объект эксперимента совершает самоубийство, их отдел закрывают. Но отважных исследователей тёмных сторон сущего это не останавливает — друзья решают ставить опыты над собой. Чтобы не спать 200 часов, они используют экспериментальное вещество, и вскоре обнаруживают, что к каждому из них подкрадывается нечто зловещее.

Качество: BD Remux 1080p
Формат: MKV

Видео: MPEG-2, 1080p, 1920:1080 (16:9), 17887 kbps, 23.976 fps
Аудио#1: АС3, 6 ch, 48 kHz, 448 kbps, 16 bits (Русский MVO HDRezka)
Аудио#2: DTS-HD MA, 6 ch, 48 kHz, 3547 kbps, 24-bit (DTS Core 6 ch, 48 kHz, 1509 kbps, 24-bit) Английский
скриншот  скриншот  скриншот  скриншот  

General
Unique ID : 332066308234957731773335580896359202296 (0xF9D1A5081F3ED5AF785664AF29B9BDF8)
Complete name : G:Sleep.No.More.2017.REMUX.mkv
Format : Matroska
Format version : Version 4
File size : 13.9 GiB
Duration : 1 h 31 min
Overall bit rate mode : Variable
Overall bit rate : 21.9 Mb/s
Encoded date : UTC 2021-12-25 14:57:25
Writing application : mkvmerge v20.0.0 ('I Am The Sun') 64-bit
Writing library : libebml v1.3.5 + libmatroska v1.4.8

Video
ID : 1
Format : MPEG Video
Format version : Version 2
Format profile : [email protected]
Format settings : CustomMatrix / BVOP
Format settings, BVOP : Yes
Format settings, Matrix : Custom
Format settings, GOP : Variable
Codec ID : V_MPEG2
Codec ID/Info : MPEG 1 or 2 Video
Duration : 1 h 31 min
Bit rate mode : Variable
Bit rate : 17.9 Mb/s
Maximum bit rate : 25.0 Mb/s
Width : 1 920 pixels
Height : 1 080 pixels
Display aspect ratio : 16:9
Frame rate mode : Constant
Frame rate : 23.976 (24000/1001) FPS
Color space : YUV
Chroma subsampling : 4:2:0
Bit depth : 8 bits
Scan type : Progressive
Compression mode : Lossy
Bits/(Pixel*Frame) : 0.360
Time code of first frame : 00:00:00:00
Time code source : Group of pictures header
GOP, Open/Closed : Closed
Stream size : 11.4 GiB (82%)
Language : English
Default : Yes
Forced : No

Audio #1
ID : 2
Format : AC-3
Format/Info : Audio Coding 3
Commercial name : Dolby Digital
Codec ID : A_AC3
Duration : 1 h 31 min
Bit rate mode : Constant
Bit rate : 448 kb/s
Channel(s) : 6 channels
Channel layout : L R C LFE Ls Rs
Sampling rate : 48.0 kHz
Frame rate : 31.250 FPS (1536 SPF)
Compression mode : Lossy
Stream size : 292 MiB (2%)
Title : MVO HDRezka
Language : Russian
Service kind : Complete Main
Default : Yes
Forced : No

Audio #2
ID : 3
Format : DTS XLL
Format/Info : Digital Theater Systems
Commercial name : DTS-HD Master Audio
Codec ID : A_DTS
Duration : 1 h 31 min
Bit rate mode : Variable
Bit rate : 3 547 kb/s
Channel(s) : 6 channels
Channel layout : C L R Ls Rs LFE
Sampling rate : 48.0 kHz
Frame rate : 93.750 FPS (512 SPF)
Bit depth : 24 bits
Compression mode : Lossless
Stream size : 2.26 GiB (16%)
Language : English
Default : No
Forced : No

Text #1
ID : 4
Format : UTF-8
Codec ID : S_TEXT/UTF8
Codec ID/Info : UTF-8 Plain Text
Duration : 1 h 26 min
Bit rate : 53 b/s
Count of elements : 1219
Stream size : 34.3 KiB (0%)
Language : English
Default : No
Forced : No

Text #2
ID : 5
Format : UTF-8
Codec ID : S_TEXT/UTF8
Codec ID/Info : UTF-8 Plain Text
Duration : 1 h 26 min
Bit rate : 50 b/s
Count of elements : 1172
Stream size : 32.2 KiB (0%)
Language : Spanish
Default : No
Forced : No

Menu
00:00:00.000 : en:Chapter 1
00:10:21.621 : en:Chapter 2
00:22:18.337 : en:Chapter 3
00:32:10.929 : en:Chapter 4
00:47:26.844 : en:Chapter 5
00:57:29.446 : en:Chapter 6
01:13:33.409 : en:Chapter 7
01:28:11.286 : en:Chapter 8




Скачать Без сна через торрент https://i116.fastpic.org/big/2021/1226/d1/134a0a3990be5f303edcf877c52090d1.jpg Скачать, смотреть онлайн Без сна бесплантно в хорошем качестве Описание: 1980-е годы. Группа студентов медицинского вуза проводит исследования влияния на организм долгого лишения сна с целью избавить ... 10 10 4
Торрент: Зарегистрирован [2021-12-26 09:50] · скачан: 32 раз
Статус: √ проверено
Размер: 13.91 GB
Как cкачать? Как скачать Без сна через торрент | UTorrent

% Раздел Тема Автор DL S | L
Фильмы 2017 [DVDrip, WEB-DLRip, HDrip] (DUB, MVO) [ 1.46 GB ] Без сна / Sleep No More | HDRezka Studio | BDRip bober100 Скачать
1 | 0

28-11-2019 20:33  


Отключить вcю реклaмy на сайте, в т.ч. и в плеере онлайн просмотра!

26-12-2021 11:27 Без сна Скачать торрент  

Рейтинг маловастый видимо фигня



    Дорогой пользователь! Огромная просьба, поблагодарите релизера, оцените раздачу и оставьте свои комментарий, если Вы скачали Без сна через торрент бесплатно!!
    Комментировать посты могут только пользователи прошедшие не сложную регистрацию
    Показать сообщения:    


    Без сна через торрент
    Скачать бесплатно Без сна
    Без сна скачать торрент
    Без сна смотреть онлайн
    Cкачать фильм Без сна бесплатно
    Без сна скачать торрент в хорошем качестве
    Без сна смотреть онлайн бесплатно в хорошем качестве
    Вы не можете начинать темы
    Вы не можете отвечать на сообщения
    Вы не можете редактировать свои сообщения
    Вы не можете удалять свои сообщения
    Вы не можете голосовать в опросах
    Вы не можете прикреплять файлы к сообщениям
    Вы можете скачивать файлы
    Без сна / Sleep No More [2017, Ужасы, BD Remux 1080p] MVO [HDRezka] смотреть онлайн, скачать торрент picoco.icu