Всегда рабочее зеркало без VPN и Proxy просто перед .vidak.icu напиши любое слово или цифру, Пример http://7ovn.vidak.icu

MVO

MVO

1 сезон

1

1 сезон

iTunes

1 сезон

13

1 сезон

Deluxe

pack

Рекомендуем

Repack

30

ВАЖНО

RePack

MK11

RePack

jed

RePack

fifa19

RePack

RDR2

RePack

NEED FOR SPEED™ PAYBACK

Кинопоиск HD

6 сезон

 Острые козырьки 6 сезон

Все сериалы

все сериалы на PB.wtf

RePack

FAR CRY 5
  
Magnet ссылка

Влacть пса / The Power of the Dog (Джейн Кэмпион) [2021, Драма, мелодрама, вестерн, UHD WEB-DL-HEVC 2160p] DUB [Пифагор / Netflix] pb.wtf

Влacть пса через торрент pb.wtf

Качают: 1 [ 0 KB/s ]
Размер: 15.08 GB | Добавлен: 7 мес. назад | Торрент скачан:107 раз
Смотреть онлайн Влacть пса | Скачать    Ребята, помогите собрать деньги на оплату серверов!!!

26-12-2021 11:58 Влacть пса Скачать торрент  

Влacть пса
The Power of the Dog

Год выпуска: 2021
Страна: Великобритания, Австралия, США, Канада, Новая Зеландия
Выпущено: See-Saw Films, Brightstar, Max Films International
Жанр: Драма, мелодрама, вестерн
Продолжительность: 02:08:42
Перевод: Дублированный | Пифагор по заказу Netflix
Субтитры: Русские (Forced, full), английские

Режиссер: Джейн Кэмпион

rating

В ролях: Бенедикт Камбербэтч, Джесси Племонс, Кирстен Данст, Коди Смит-Макфи, Томасин Маккензи, Кит Каррадайн, Фрэнсис Конрой, Адам Бич, Питер Кэрролл, Карл Виллетц, Татум Уоррен-Нгата, Иветта Парронс, Маэсон Стоун Скуггедал, Рамонтей МакКоннелл

Описание: Братья Фил и Джордж — владельцы крупнейшего ранчо Монтаны. Несмотря на родство, братья мало похожи друг на друга. Фил отличается умом и жесткостью, а Джордж — добротой и любовью к порядку. Когда Фил узнаёт, что Джордж тайно женился на местной вдове Роуз, он решает использовать её сына Питера, чтобы уничтожить их брак.

Качество: UHD WEB-DL-HEVC 2160p
Формат: MKV

Видео: 3840x2160 at 24.000 fps, MPEG-H HEVC HDR Video, ~ 14900 kbps avg
Аудио #01: 48 kHz, E-AC3, 5.1, 640 Kbps | Дублированный | Netflix | RUS |
Аудио #02: 48 kHz, AC3, 5.1, 640 Kbps | Дублированный | Netflix | RUS |
Аудио #03: 48 kHz, E-AC3+Atmos, 5.1, 768 Kbps | Оригинал | ENG |
скриншот  скриншот  скриншот  скриншот  скриншот  

General
Unique ID : 246090841386163319162385730800674553013 (0xB9235F3E70988C6A35B1D3F282CA3CB5)
Complete name : D:VideoThe.Power.of.the.Dog.2021.WEB-DL.2160p.HDR.seleZen.mkv
Format : Matroska
Format version : Version 4
File size : 15.1 GiB
Duration : 2 h 8 min
Overall bit rate : 16.8 Mb/s
Movie name : The Power of the Dog 2021 from seleZen
Encoded date : UTC 2021-12-25 21:36:45
Writing application : mkvmerge v59.0.0 ('Shining Star') 64-bit
Writing library : libebml v1.4.2 + libmatroska v1.6.4

Video
ID : 1
Format : HEVC
Format/Info : High Efficiency Video Coding
Format profile : Main [email protected]@Main
HDR format : SMPTE ST 2086, HDR10 compatible
Codec ID : V_MPEGH/ISO/HEVC
Duration : 2 h 7 min
Bit rate : 14.9 Mb/s
Width : 3 840 pixels
Height : 2 160 pixels
Display aspect ratio : 16:9
Frame rate mode : Constant
Frame rate : 24.000 FPS
Color space : YUV
Chroma subsampling : 4:2:0 (Type 2)
Bit depth : 10 bits
Bits/(Pixel*Frame) : 0.075
Stream size : 13.2 GiB (88%)
Language : English
Default : Yes
Forced : No
Color range : Limited
Color primaries : BT.2020
Transfer characteristics : PQ
Matrix coefficients : BT.2020 non-constant
Mastering display color pri: Display P3
Mastering display luminance: min: 0.0001 cd/m2, max: 1000 cd/m2
Maximum Content Light Level: 1870 cd/m2
Maximum Frame-Average Light: 104 cd/m2

Audio #1
ID : 2
Format : E-AC-3
Format/Info : Enhanced AC-3
Commercial name : Dolby Digital Plus
Codec ID : A_EAC3
Duration : 2 h 8 min
Bit rate mode : Constant
Bit rate : 640 kb/s
Channel(s) : 6 channels
Channel layout : L R C LFE Ls Rs
Sampling rate : 48.0 kHz
Frame rate : 31.250 FPS (1536 SPF)
Compression mode : Lossy
Stream size : 589 MiB (4%)
Title : Dub [Netflix]
Language : Russian
Service kind : Complete Main
Default : Yes
Forced : Yes

Audio #2
ID : 3
Format : AC-3
Format/Info : Audio Coding 3
Commercial name : Dolby Digital
Codec ID : A_AC3
Duration : 2 h 8 min
Bit rate mode : Constant
Bit rate : 640 kb/s
Channel(s) : 6 channels
Channel layout : L R C LFE Ls Rs
Sampling rate : 48.0 kHz
Frame rate : 31.250 FPS (1536 SPF)
Compression mode : Lossy
Stream size : 589 MiB (4%)
Title : Dub [Netflix]
Language : Russian
Service kind : Complete Main
Default : No
Forced : No

Audio #3
ID : 4
Format : E-AC-3 JOC
Format/Info : Enhanced AC-3 with Joint Object Coding
Commercial name : Dolby Digital Plus with Dolby Atmos
Codec ID : A_EAC3
Duration : 2 h 8 min
Bit rate mode : Constant
Bit rate : 768 kb/s
Channel(s) : 6 channels
Channel layout : L R C LFE Ls Rs
Sampling rate : 48.0 kHz
Frame rate : 31.250 FPS (1536 SPF)
Compression mode : Lossy
Stream size : 707 MiB (5%)
Title : Original
Language : English
Service kind : Complete Main
Default : No
Forced : No
Complexity index : 16
Number of dynamic objects : 15
Bed channel count : 1 channel
Bed channel configuration : LFE

Text #1
ID : 5
Format : UTF-8
Codec ID : S_TEXT/UTF8
Codec ID/Info : UTF-8 Plain Text
Duration : 2 h 5 min
Bit rate : 1 b/s
Count of elements : 29
Stream size : 1.45 KiB (0%)
Title : Forced
Language : Russian
Default : Yes
Forced : Yes

Text #2
ID : 6
Format : UTF-8
Codec ID : S_TEXT/UTF8
Codec ID/Info : UTF-8 Plain Text
Duration : 2 h 5 min
Bit rate : 41 b/s
Count of elements : 871
Stream size : 38.6 KiB (0%)
Title : Full
Language : Russian
Default : No
Forced : No

Text #3
ID : 7
Format : UTF-8
Codec ID : S_TEXT/UTF8
Codec ID/Info : UTF-8 Plain Text
Duration : 2 h 4 min
Bit rate : 37 b/s
Count of elements : 1246
Stream size : 34.4 KiB (0%)
Title : SDH
Language : English
Default : No
Forced : No

pb.wtf



Скачать Влacть пса через торрент https://d.radikal.ru/d04/2112/0e/3fe3c0533981.jpg Скачать, смотреть онлайн Влacть пса бесплантно в хорошем качестве Описание: Братья Фил и Джордж — владельцы крупнейшего ранчо Монтаны. Несмотря на родство, братья мало похожи друг на друга. Фил отличается ... 10 10 2
Торрент: Зарегистрирован [2021-12-26 11:58] · скачан: 107 раз
Статус: √ проверено
Размер: 15.08 GB
Как cкачать? Как скачать Влacть пса через торрент | UTorrent

28-11-2019 20:33  

Отключить вcю реклaмy на сайте

    Дорогой пользователь! Огромная просьба, поблагодарите релизера, оцените раздачу и оставьте свои комментарий, если Вы скачали Влacть пса через торрент бесплатно!
    Комментировать посты могут только пользователи прошедшие не сложную регистрацию
    Показать сообщения:    

    Влacть пса через торрент
    Скачать бесплатно Влacть пса
    Влacть пса скачать торрент
    Влacть пса смотреть онлайн
    Cкачать фильм Влacть пса бесплатно
    Влacть пса скачать торрент в хорошем качестве
    Влacть пса смотреть онлайн бесплатно в хорошем качестве


    Вы не можете начинать темы
    Вы не можете отвечать на сообщения
    Вы не можете редактировать свои сообщения
    Вы не можете удалять свои сообщения
    Вы не можете голосовать в опросах
    Вы не можете прикреплять файлы к сообщениям
    Вы можете скачивать файлы