Всегда рабочее зеркало без VPN и Proxy просто перед .vidak.icu напиши любое слово или цифру, Пример http://pef9.vidak.icu

MVO

Лицензия

1 сезон

1

1 сезон

iTunes

1 сезон

13

1 сезон

Deluxe

pack

Рекомендуем

Пиратка

30

ВАЖНО

RePack

MK11

RePack

jed

RePack

fifa19

RePack

RDR2

RePack

NEED FOR SPEED™ PAYBACK

Кинопоиск HD

6 сезон

 Острые козырьки 6 сезон

Все сериалы

все сериалы на PB.wtf

RePack

FAR CRY 5
  
Magnet ссылка

Дом на глубине / Подводный дом / The Deep House (Александр Бустильо, Жюльен Мори) [2021, Ужасы, WEB-DL 1080p, (AMZN Version)] DUB [SDI Media / iTunes] pb.wtf

Дом на глубине через торрент pb.wtf

Раздают: 1 [ 0 KB/s ]
Размер: 5.31 GB | Добавлен: 6 мес. назад | Торрент скачан:244 раза
Смотреть онлайн Дом на глубине | Скачать    Ребята, помогите собрать деньги на оплату серверов!!!

28-12-2021 16:19 Дом на глубине Скачать торрент  

Дом на глубине | Подводный дом
The Deep House

Год выпуска: 2021
Страна: Франция, Бельгия
Студия: Apollo Films, Centre National de la Cinématographie (CNC), Forecast Pictures, Investisseurs Tax Shelter, Le Tax Shelter du Gouvernement Fédéral de Belgique, Logical Pictures, OCS, Radar Films, Screen Flanders, uMedia Family, Wallimages
Жанр: Ужасы
Продолжительность: 01:25:05
Перевод: Дублированный | SDI Media | iTunes
Субтитры: Английские

Режиссер: Александр Бустильо, Жюльен Мори

rating

В ролях: Камилль Роу, Джеймс Джаггер, Эрик Савен, Алексис Сервес, Энн Клессанс, Каролина Массе, Мари Каффье, Мари Бернард

Описание: У молодой и современной пары, которая отправляется во Францию, чтобы исследовать подводный дом и поделиться своими находками в социальных сетях, серьезно меняются планы, когда они попадают внутрь странного дома, расположенного на дне моря. Их присутствие пробуждает темный дух, который преследует дом.

Качество: WEB-DL 1080p | AMZN Version
Формат: MKV

Видео: MPEG-4 AVC, 1920x1080, 10.0 Mbit/s, 23.976 fps
Аудио #01: 48 kHz, AC3, 5.1, 384 Kbps | iTunes | RUS |
Аудио #02: 48 kHz, E-AC3, 5.1, 640 Kbps | Оригинал | ENG |
скриншот  скриншот  скриншот  скриншот  скриншот  

General
Unique ID : 183360366207041263860343763870847067156 (0x89F1EC077BDFDE4B49B5F7EF3BC3E414)
Complete name : D:VideoThe.Deep.House.2021.WEB-DL.1080p.seleZen.mkv
Format : Matroska
Format version : Version 4
File size : 5.31 GiB
Duration : 1 h 25 min
Overall bit rate : 8 926 kb/s
Movie name : The Deep House 2021 from seleZen
Encoded date : UTC 2021-12-27 17:00:41
Writing application : mkvmerge v59.0.0 ('Shining Star') 64-bit
Writing library : libebml v1.4.2 + libmatroska v1.6.4

Video
ID : 1
Format : AVC
Format/Info : Advanced Video Codec
Format profile : High@L4
Format settings : CABAC / 4 Ref Frames
Format settings, CABAC : Yes
Format settings, Reference : 4 frames
Codec ID : V_MPEG4/ISO/AVC
Duration : 1 h 25 min
Bit rate mode : Constant
Bit rate : 7 902 kb/s
Nominal bit rate : 10 000 kb/s
Width : 1 920 pixels
Height : 1 080 pixels
Display aspect ratio : 16:9
Frame rate mode : Constant
Frame rate : 23.976 (24000/1001) FPS
Color space : YUV
Chroma subsampling : 4:2:0
Bit depth : 8 bits
Scan type : Progressive
Bits/(Pixel*Frame) : 0.159
Stream size : 4.70 GiB (89%)
Language : English
Default : Yes
Forced : No
Color range : Limited
Color primaries : BT.709
Transfer characteristics : BT.709
Matrix coefficients : BT.709

Audio #1
ID : 2
Format : AC-3
Format/Info : Audio Coding 3
Commercial name : Dolby Digital
Codec ID : A_AC3
Duration : 1 h 25 min
Bit rate mode : Constant
Bit rate : 384 kb/s
Channel(s) : 6 channels
Channel layout : L R C LFE Ls Rs
Sampling rate : 48.0 kHz
Frame rate : 31.250 FPS (1536 SPF)
Compression mode : Lossy
Stream size : 234 MiB (4%)
Title : iTunes
Language : Russian
Service kind : Complete Main
Default : Yes
Forced : Yes

Audio #2
ID : 3
Format : E-AC-3
Format/Info : Enhanced AC-3
Commercial name : Dolby Digital Plus
Codec ID : A_EAC3
Duration : 1 h 25 min
Bit rate mode : Constant
Bit rate : 640 kb/s
Channel(s) : 6 channels
Channel layout : L R C LFE Ls Rs
Sampling rate : 48.0 kHz
Frame rate : 31.250 FPS (1536 SPF)
Compression mode : Lossy
Stream size : 389 MiB (7%)
Title : Original
Language : English
Service kind : Complete Main
Default : No
Forced : No

Text #1
ID : 4
Format : UTF-8
Codec ID : S_TEXT/UTF8
Codec ID/Info : UTF-8 Plain Text
Duration : 1 h 22 min
Bit rate : 34 b/s
Count of elements : 873
Stream size : 20.9 KiB (0%)
Title : Full
Language : English
Default : No
Forced : No

Text #2
ID : 5
Format : UTF-8
Codec ID : S_TEXT/UTF8
Codec ID/Info : UTF-8 Plain Text
Duration : 1 h 23 min
Bit rate : 46 b/s
Count of elements : 1102
Stream size : 28.3 KiB (0%)
Title : SDH
Language : English
Default : No
Forced : No

pb.wtf



Скачать Дом на глубине через торрент https://i120.fastpic.org/big/2022/0528/d2/c97974c78dce50171db6c3ca376200d2.jpg Скачать, смотреть онлайн Дом на глубине бесплантно в хорошем качестве Описание: У молодой и современной пары, которая отправляется во Францию, чтобы исследовать подводный дом и поделиться своими находками в ... 10 10 6
Торрент: Зарегистрирован [2021-12-28 16:19] · скачан: 244 раз
Статус: √ проверено
Размер: 5.31 GB
Как cкачать? Как скачать Дом на глубине через торрент | UTorrent

% Раздел Тема Автор DL S | L
Фильмы [HD 720p, 1080p] (Хороший звук DUB, MVO) [ 3.15 GB ] Дом на глубине / Подводный дом / The Deep House [2021 BDRip 720p] DUB [SDI Media / ] bober100 Скачать
6 | 0
Фильмы [HD 720p, 1080p] (Хороший звук DUB, MVO) [ 7.36 GB ] Дом на глубине / Подводный дом / The Deep House [2021 BDRip 1080p] DUB [SDI Media / ] bober100 Скачать
9 | 0


Последний раз редактировалось: bober100 (2022-05-28 07:09), всего редактировалось 2 раз(а)

28-11-2019 20:33  

Отключить всю рекламу на сайте

11-01-2022 09:35 Дом на глубине Скачать торрент  

оочень банальный сюжет... да и ужасов там раз и обчелся...pb.wtf



    Дорогой пользователь! Огромная просьба, поблагодарите релизера, оцените раздачу и оставьте свои комментарий, если Вы скачали Дом на глубине через торрент бесплатно!
    Комментировать посты могут только пользователи прошедшие не сложную регистрацию
    Показать сообщения:    

    Дом на глубине через торрент
    Скачать бесплатно Дом на глубине
    Дом на глубине скачать торрент
    Дом на глубине смотреть онлайн
    Cкачать фильм Дом на глубине бесплатно
    Дом на глубине скачать торрент в хорошем качестве
    Дом на глубине смотреть онлайн бесплатно в хорошем качестве


    Вы не можете начинать темы
    Вы не можете отвечать на сообщения
    Вы не можете редактировать свои сообщения
    Вы не можете удалять свои сообщения
    Вы не можете голосовать в опросах
    Вы не можете прикреплять файлы к сообщениям
    Вы можете скачивать файлы