Всегда рабочее зеркало просто перед .vidak.icu напиши любое слово или цифру, Пример http://z1i.vidak.icu

>

7.4

iTunes

7.4

2 сезон

6.6

iTunes

1

7.4

2 сезон

7.2

iTunes

6.0

MVO

13

6.1

iTunes

8.3

Пиратка

30

ULTIMATE

pack

9.9

Лицензия

ВАЖНО

ИГРА 18+

pack

7.3

RePack

MK11

7.7

RePack

jed

7.8

RePack

fifa19

8.5

RePack

RDR2

RePack

NEED FOR SPEED™ PAYBACK

1 сезон

9 сезон

Бесстыжие 9 сезон

Все сериалы

все сериалы на PB.wtf

RePack

FAR CRY 5

Anonymous, добрый день, мы катастрофически не успеваем собрать деньги на оплату серверов, помогите нам пожалуйста 5,10,15р., для нас важна любая помощь . В качестве благодарности мы отключим Вам всю рекламу на сайте (укажите свой ник в строку Ваше имя)!

×
  
Magnet ссылка

Хильда / Хильда и горный король / Hilda and the Mountain King (Энди Койл) [2021, Мультфильм, фэнтези, драма, комедия, приключения, семейный, WEB-DL 1080p] DUB [IYUNO SDI Group / Netflix] pb.wtf

Хильда через торрент pb.wtf

Раздают: 6 [ 17 KB/s ]
Размер: 1.88 GB | Добавлен: 22 д. назад | Торрент скачан:93 раза
Смотреть онлайн Хильда | Скачать    Ребята, помогите собрать деньги на оплату серверов!!!

30-12-2021 11:56 Хильда Скачать торрент  

Хильда | Хильда и горный король
Hilda and the Mountain King

Год выпуска: 2021
Страна: Великобритания, США, Канада
Студия: Giant Ant, Mercury Filmworks, Silvergate Media
Жанр: Мультфильм, фэнтези, драма, комедия, приключения, семейный
Продолжительность: 01:24:40
Перевод: Дублированный | IYUNO SDI Group по заказу Netflix
Субтитры: Русские (Forced, full), английские (SDH) и другие

Режиссер: Энди Койл

rating

В ролях: Дэйзи Хаггард, Джон Хопкинс, Люси Монтгомери, Расмус Хардикер, Дино Келли, Амира Фалзон-Оджо, Оливер Нельсон

Описание: Проснувшись в теле тролля, Хильда должна проявить смекалку и отвагу, чтобы вернуться домой, стать человеком, а ещё — спасти город Тролльберг.

Качество: WEB-DL 1080p
Формат: MKV

Видео: 1920x1080 at 24.000 fps, MPEG-4 AVC, ~2000 kbps avg
Аудио#1 Rus: 48 kHz, Е-AC3, 3/2 (L,C,R,l,r) + LFE ch, ~640 kbps avg
Аудио#2 Eng: 48 kHz, Е-AC3, 3/2 (L,C,R,l,r) + LFE ch, ~640 kbps avg
скриншот  скриншот  скриншот  скриншот  

General
Unique ID : 113339313405632724099970335495857627081 (0x55445B95ECBADBA17685E0C827B7DFC9)
Complete name : Hilda.and.the.Mountain.King.2021.1080p.NF.WEB-DL.DDP5.1.x264-EniaHD.mkv
Format : Matroska
Format version : Version 4
File size : 1.88 GiB
Duration : 1 h 24 min
Overall bit rate mode : Variable
Overall bit rate : 3 183 kb/s
Movie name : Hilda and the Mountain King (2021) - EniaHD
Writing application : mkvmerge v57.0.0 ('Till The End') 64-bit
Writing library : libebml v1.4.2 + libmatroska v1.6.4

Video
ID : 1
Format : AVC
Format/Info : Advanced Video Codec
Format profile : Main@L4
Format settings : CABAC / 3 Ref Frames
Format settings, CABAC : Yes
Format settings, Reference fra : 3 frames
Codec ID : V_MPEG4/ISO/AVC
Duration : 1 h 24 min
Bit rate mode : Variable
Bit rate : 1 960 kb/s
Maximum bit rate : 2 940 kb/s
Width : 1 920 pixels
Height : 1 080 pixels
Display aspect ratio : 16:9
Frame rate mode : Constant
Frame rate : 23.976 (24000/1001) FPS
Color space : YUV
Chroma subsampling : 4:2:0
Bit depth : 8 bits
Scan type : Progressive
Bits/(Pixel*Frame) : 0.039
Stream size : 1.12 GiB (60%)
Writing library : x264 core 148 r2727 7d026e8
Encoding settings : cabac=1 / ref=3 / deblock=1:0:0 / analyse=0x1:0x111 / me=umh / subme=10 / psy=1 / psy_rd=1.00:0.00 / mixed_ref=1 / me_range=24 / chroma_me=1 / trellis=2 / 8x8dct=0 / cqm=0 / deadzone=21,11 / fast_pskip=1 / chroma_qp_offset=-2 / threads=8 / lookahead_threads=1 / sliced_threads=0 / nr=0 / decimate=1 / interlaced=0 / bluray_compat=0 / stitchable=1 / constrained_intra=0 / bframes=2 / b_pyramid=0 / b_adapt=2 / b_bias=0 / direct=3 / weightb=1 / open_gop=0 / weightp=2 / keyint=250 / keyint_min=23 / scenecut=0 / intra_refresh=0 / rc_lookahead=48 / rc=2pass / mbtree=1 / bitrate=1960 / ratetol=1.0 / qcomp=0.50 / qpmin=6 / qpmax=51 / qpstep=4 / cplxblur=20.0 / qblur=0.5 / vbv_maxrate=2940 / vbv_bufsize=3920 / nal_hrd=vbr / filler=0 / ip_ratio=1.40 / aq=1:1.00
Default : Yes
Forced : No

Audio #1
ID : 2
Format : E-AC-3
Format/Info : Enhanced AC-3
Commercial name : Dolby Digital Plus
Codec ID : A_EAC3
Duration : 1 h 24 min
Bit rate mode : Constant
Bit rate : 640 kb/s
Channel(s) : 6 channels
Channel layout : L R C LFE Ls Rs
Sampling rate : 48.0 kHz
Frame rate : 31.250 FPS (1536 SPF)
Compression mode : Lossy
Stream size : 388 MiB (20%)
Language : Russian
Service kind : Complete Main
Default : Yes
Forced : No

Audio #2
ID : 3
Format : E-AC-3
Format/Info : Enhanced AC-3
Commercial name : Dolby Digital Plus
Codec ID : A_EAC3
Duration : 1 h 24 min
Bit rate mode : Constant
Bit rate : 640 kb/s
Channel(s) : 6 channels
Channel layout : L R C LFE Ls Rs
Sampling rate : 48.0 kHz
Frame rate : 31.250 FPS (1536 SPF)
Compression mode : Lossy
Stream size : 388 MiB (20%)
Language : English
Service kind : Complete Main
Default : No
Forced : No

Text #1
ID : 4
Format : UTF-8
Codec ID : S_TEXT/UTF8
Codec ID/Info : UTF-8 Plain Text
Duration : 1 h 19 min
Bit rate : 1 b/s
Count of elements : 15
Stream size : 642 Bytes (0%)
Title : Forced
Language : Russian
Default : Yes
Forced : No

Text #2
ID : 5
Format : UTF-8
Codec ID : S_TEXT/UTF8
Codec ID/Info : UTF-8 Plain Text
Duration : 1 h 21 min
Bit rate : 72 b/s
Count of elements : 942
Stream size : 43.1 KiB (0%)
Language : Russian
Default : No
Forced : No

Text #3
ID : 6
Format : UTF-8
Codec ID : S_TEXT/UTF8
Codec ID/Info : UTF-8 Plain Text
Duration : 1 h 22 min
Bit rate : 62 b/s
Count of elements : 1423
Stream size : 38.0 KiB (0%)
Title : SDH
Language : English
Default : No
Forced : No

Text #4
ID : 7
Format : UTF-8
Codec ID : S_TEXT/UTF8
Codec ID/Info : UTF-8 Plain Text
Duration : 1 h 21 min
Bit rate : 67 b/s
Count of elements : 973
Stream size : 40.0 KiB (0%)
Language : Hebrew
Default : No
Forced : No

Text #5
ID : 8
Format : UTF-8
Codec ID : S_TEXT/UTF8
Codec ID/Info : UTF-8 Plain Text
Duration : 1 h 21 min
Bit rate : 46 b/s
Count of elements : 883
Stream size : 27.8 KiB (0%)
Language : Romanian
Default : No
Forced : No

Text #6
ID : 9
Format : UTF-8
Codec ID : S_TEXT/UTF8
Codec ID/Info : UTF-8 Plain Text
Duration : 1 h 21 min
Bit rate : 75 b/s
Count of elements : 948
Stream size : 44.7 KiB (0%)
Language : Ukrainian
Default : No
Forced : No

pb.wtf



Скачать Хильда через торрент https://i6.imageban.ru/out/2021/12/30/0e8ba8148de3454a979b61175936314c.jpg Скачать, смотреть онлайн Хильда бесплантно в хорошем качестве Описание: Проснувшись в теле тролля, Хильда должна проявить смекалку и отвагу, чтобы вернуться домой, стать человеком, а ещё — спасти город ... 8.2 10 5
Торрент: Зарегистрирован [2021-12-30 11:56] · скачан: 93 раз
Статус: √ проверено
Размер: 1.88 GB
Как cкачать? Как скачать Хильда через торрент | UTorrent

% Раздел Тема Автор DL S | L
Иностранные мультфильмы [ 1.37 GB ] Хильда / Хильда и горный король / Hilda and the Mountain King [2021 Мультфильм WEB-DLRip] DUB [IYUNO SDI Group / Netflix] bober100 Скачать
5 | 0

28-11-2019 20:33  

Отключить всю рекламу на сайте

    Дорогой пользователь! Огромная просьба, поблагодарите релизера, оцените раздачу и оставьте свои комментарий, если Вы скачали Хильда через торрент бесплатно!
    Комментировать посты могут только пользователи прошедшие не сложную регистрацию
    Показать сообщения:    

    Хильда через торрент
    Скачать бесплатно Хильда
    Хильда скачать торрент
    Хильда смотреть онлайн
    Cкачать фильм Хильда бесплатно
    Хильда скачать торрент в хорошем качестве
    Хильда смотреть онлайн бесплатно в хорошем качестве


    Вы не можете начинать темы
    Вы не можете отвечать на сообщения
    Вы не можете редактировать свои сообщения
    Вы не можете удалять свои сообщения
    Вы не можете голосовать в опросах
    Вы не можете прикреплять файлы к сообщениям
    Вы можете скачивать файлы