Доктор Стрэндж

Лицензия

Добыча

Дубляж

Дом дракона

1 сезон

Тор

Дубляж

В эфире

Дубляж

Там, где раки поют

MVO

Властелин колец

1 сезон

Аренда ака

pack

Рекомендуем

30

Пиратка

ВАЖНО

ВАЖНО

Ghostwire

Пиратка

jed

RePack

nioh2

RePack

RDR2

RePack

NEED FOR SPEED™ PAYBACK

RePack

скачать торрент

Кинопоиск HD

Острые козырьки 6 сезон

6 сезон

FAR CRY 6

RePack

скачать торрент

Лицензия

скачать торрент

MVO

1

1 сезон

скачать торрент

1 сезон

скачать торрент

Лицензия

  

Ледяная история (Сергей Русаков) [2021, Семейный, фэнтези, приключения, WEB-DL 1080p]

Ледяная история через торрент pb.wtf

Размер: 3.34 GB | Добавлен: 10 мес. назад | Торрент скачан:47 раз
Смотреть онлайн | Скачать   

31-12-2021 04:47 Ледяная история Скачать торрент  

Ледяная история
Год выпуска: 2021
Страна: Россия
Студия: Киностудия «Рифей», «Лига-Фильм», «Салюс-Медиа»
Жанр: Семейный, фэнтези, приключения
Продолжительность: 01:30:10
Перевод: Не требуется
Субтитры: отсутствуют

Режиссер: Сергей Русаков

rating

В ролях: Камилла Войтова, Дмитрий Зориков, Полина Павлова, Владимир Глазков, Яна Пронина, Федор Сухов, Екатерина Королева, Наталья Фатеева, Ян Решетников

Описание: В Стране Холода, где правит добрая королева Морожана и делают для детей мороженое, вдруг захватил Влacть злодей Сосулька. Девочка Варя, мальчик Артем и его Дедушка вступают в борьбу, волшебный сироп Добра спасает Варю и разрушает планы Сосульки. Друзья и Дедушка вновь запустили конвейер со старым добрым мороженым, что несет детям радость и добро.

Качество: WEB-DL 1080p
Формат: MKV

Видео: 1920*1036 (1,85:1), ~5120 кбит/сек, 24,000 кадра/сек, AVC ([email protected])
Аудио: 48.0 kHz, AC3 Dolby Digital, 2/0 (L,R) ch, ~ 192 kbps
скриншот  скриншот  скриншот  скриншот  скриншот  

Общее
Уникальный идентификатор : 12536042845400109575968514267136049284 (0x96E5AA1B5E91009E1F2CBD0D046C084)
Полное имя : D:Ledianaya.Istoria.202.WEB-DL.1080p.trevor333.mkv
Формат : Matroska
Версия формата : Version 4
Размер файла : 3,34 Гбайт
Продолжительность : 1 ч. 30 м.
Общий поток : 5 305 Кбит/сек
Название фильма : Ledianaya Istoria 2021 trevor333
Дата кодирования : UTC 2021-12-29 23:30:18
Программа кодирования : mkvmerge v63.0.0 ('Everything') 64-bit
Библиотека кодирования : libebml v1.4.2 + libmatroska v1.6.4

Видео
Идентификатор : 1
Формат : AVC
Формат/Информация : Advanced Video Codec
Профиль формата : [email protected]
Настройки формата : CABAC / 4 Ref Frames
Параметр CABAC формата : Да
Параметр RefFrames формата : 4 кадра
Идентификатор кодека : V_MPEG4/ISO/AVC
Продолжительность : 1 ч. 30 м.
Битрейт : 5 120 Кбит/сек
Ширина : 1 920 пикселей
Высота : 1 036 пикселей
Соотношение сторон : 1,85:1
Режим частоты кадров : Постоянный
Частота кадров : 24,000 кадра/сек
Цветовое пространство : YUV
Субдискретизация насыщенности : 4:2:0
Битовая глубина : 8 бит
Тип развёртки : Прогрессивная
Бит/(Пиксели*Кадры) : 0.107
Размер потока : 3,22 Гбайт (96%)
Библиотека кодирования : x264 core 152 r2854 e9a5903
Настройки программы : cabac=1 / ref=3 / deblock=1:0:0 / analyse=0x3:0x113 / me=hex / subme=7 / psy=1 / psy_rd=1.00:0.00 / mixed_ref=1 / me_range=16 / chroma_me=1 / trellis=1 / 8x8dct=1 / cqm=0 / deadzone=21,11 / fast_pskip=1 / chroma_qp_offset=-2 / threads=32 / lookahead_threads=5 / sliced_threads=0 / nr=0 / decimate=1 / interlaced=0 / bluray_compat=0 / constrained_intra=0 / bframes=6 / b_pyramid=2 / b_adapt=1 / b_bias=0 / direct=1 / weightb=1 / open_gop=0 / weightp=2 / keyint=48 / keyint_min=25 / scenecut=0 / intra_refresh=0 / rc_lookahead=40 / rc=2pass / mbtree=1 / bitrate=5120 / ratetol=1.0 / qcomp=0.60 / qpmin=0 / qpmax=69 / qpstep=4 / cplxblur=20.0 / qblur=0.5 / vbv_maxrate=7680 / vbv_bufsize=20480 / nal_hrd=none / filler=0 / ip_ratio=1.40 / aq=1:1.00
Язык : Russian
Default : Да
Forced : Нет

Аудио
Идентификатор : 2
Формат : AC-3
Формат/Информация : Audio Coding 3
Коммерческое название : Dolby Digital
Идентификатор кодека : A_AC3
Продолжительность : 1 ч. 30 м.
Вид битрейта : Постоянный
Битрейт : 192 Кбит/сек
Каналы : 2 канала
Channel layout : L R
Частота : 48,0 КГц
Частота кадров : 31,250 кадров/сек (1536 SPF)
Метод сжатия : С потерями
Размер потока : 124 Мбайт (4%)
Язык : Russian
Service kind : Complete Main
Default : Да
Forced : Нет




Скачать Ледяная история через торрент https://i116.fastpic.org/big/2021/1230/f8/3ef49dfe5e816250eb762886226e5df8.jpg Скачать, смотреть онлайн Ледяная история бесплантно в хорошем качестве Описание: В Стране Холода, где правит добрая королева Морожана и делают для детей мороженое, вдруг захватил Влacть злодей Сосулька. Девочка ... 8.2 10 5
Торрент: Зарегистрирован [2021-12-31 04:47] · скачан: 47 раз
Статус: T временная
Размер: 3.34 GB
Как cкачать? Как скачать Ледяная история через торрент | UTorrent

% Раздел Тема Автор DL S | L
T Детские отечественные фильмы [ 1.46 GB ] Ледяная история | | DLRip bober100 Скачать
1 | 0

28-11-2019 20:33  


Отключить вcю реклaмy на сайте, в т.ч. и в плеере онлайн просмотра!

31-12-2021 06:22 Ледяная история Скачать торрент  

! как это всё дёшево выглядит!
не кормите детей этим говном!
есть много хороших старых фильмов!



31-12-2021 07:05 Ледяная история Скачать торрент  

maikee писал(а):

! как это всё дёшево выглядит!
не кормите детей этим говном!
есть много хороших старых фильмов!

потому что ватный фильм



31-12-2021 08:42 Ледяная история Скачать торрент  

с меня скринов хватило и постера на пародию гари потера от этого кино и смотреть не хочеца



31-12-2021 14:21 Ледяная история Скачать торрент  

на четвертом скрине Палпатин на минималках?



    Дорогой пользователь! Огромная просьба, поблагодарите релизера, оцените раздачу и оставьте свои комментарий, если Вы скачали Ледяная история через торрент бесплатно!!
    Комментировать посты могут только пользователи прошедшие не сложную регистрацию
    Показать сообщения:    


    Ледяная история через торрент
    Скачать бесплатно Ледяная история
    Ледяная история скачать торрент
    Ледяная история смотреть онлайн
    Cкачать фильм Ледяная история бесплатно
    Ледяная история скачать торрент в хорошем качестве
    Ледяная история смотреть онлайн бесплатно в хорошем качестве
    Вы не можете начинать темы
    Вы не можете отвечать на сообщения
    Вы не можете редактировать свои сообщения
    Вы не можете удалять свои сообщения
    Вы не можете голосовать в опросах
    Вы не можете прикреплять файлы к сообщениям
    Вы можете скачивать файлы
    Ледяная история [2021, Семейный, фэнтези, приключения, WEB-DL 1080p] смотреть онлайн, скачать торрент picoco.icu