Доктор Стрэндж

Лицензия

Добыча

MVO

Дом дракона

1 сезон

Тор

Лицензия

Мэверик

Лицензия

Там, где раки поют

MVO

Властелин колец

1 сезон

Ultimate

pack

Рекомендуем

30

Repack

ВАЖНО

ВАЖНО

Ghostwire

RePack

jed

RePack

nioh2

RePack

RDR2

RePack

NEED FOR SPEED™ PAYBACK

RePack

скачать торрент

Кинопоиск HD

Острые козырьки 6 сезон

6 сезон

FAR CRY 6

RePack

скачать торрент

Лицензия

скачать торрент

MVO

1

1 сезон

скачать торрент

1 сезон

скачать торрент

Лицензия

  

Честный развод (Иван Кульнев) [2021, Комедия, WEB-DL 1080p] [KION]

Честный развод через торрент pb.wtf

Раздают: 1 [ 0 KB/s ]
Размер: 4.44 GB | Добавлен: 9 мес. назад | Торрент скачан:364 раза
Смотреть онлайн | Скачать   

31-12-2021 09:41 Честный развод Скачать торрент  

Честный развод
Год выпуска: 2021
Страна: Россия
Выпущено: MEGOGO
Жанр: Комедия
Продолжительность: 01:37:45
Перевод: Не требуется | KION
Субтитры: отсутствуют

Режиссер: Иван Кульнев

rating

В ролях: Александр Робак, Агата Муцениеце, Андрей Борисов, Анна Невская, Андрей Федорцов, Юлия Сулес, Сергей Анненков, Ирина Безряднова

Описание: Гена всю жизнь старался быть опорой семьи. Ради этого он даже отказался от бурной молодости и мечты стать звездой КВН. А когда спустя 25 лет жена назвала его скучным и предложила развестись, Гена решает наверстать упущенное — наполнить жизнь приключениями и поехать на фестиваль КВН в Сочи. А подталкивает его к этому путешествию новая знакомая — прекрасная девушка очень легкого поведения. Она уверена, что талантливый Гена с ее помощью очень быстро станет звездой юмора. Если ещё быстрее она не исчезнет вместе с приличной суммой с Гениной карты.

Качество: WEB-DL 1080p
Формат: MKV

Видео: MPEG-4 AVC, 6144 Кбит/с, 1920x1080, 24.000 fps
Аудио: 48 kHz, AC3 Dolby Digital, 3/2 (L, C, R, l, r) + LFE ch, ~384 Kbps
скриншот  скриншот  скриншот  скриншот  

Complete name : Chestnyiy.razvod.2021.WEB-DL.1080p.ELEKTRI4KA.UNIONGANG.mkv
Format : Matroska
Format version : Version 4
File size : 4.44 GiB
Duration : 1 h 37 min
Overall bit rate mode : Constant
Overall bit rate : 6 504 kb/s
Movie name : Chestnyiy.razvod.2021.WEB-DL.1080p.ELEKTRI4KA.UNIONGANG.
Encoded date : UTC 2021-12-31 00:03:31
Writing application : mkvmerge v63.0.0 ('Everything') 32-bit
Writing library : libebml v1.4.2 + libmatroska v1.6.4

Video
ID : 1
Format : AVC
Format/Info : Advanced Video Codec
Format profile : [email protected]
Format settings : 2 Ref Frames
Format settings, CABAC : No
Format settings, Reference frames : 2 frames
Codec ID : V_MPEG4/ISO/AVC
Duration : 1 h 37 min
Bit rate mode : Constant
Bit rate : 6 144 kb/s
Width : 1 920 pixels
Height : 1 080 pixels
Display aspect ratio : 16:9
Frame rate mode : Constant
Frame rate : 24.000 FPS
Color space : YUV
Chroma subsampling : 4:2:0
Bit depth : 8 bits
Scan type : Progressive
Bits/(Pixel*Frame) : 0.123
Stream size : 4.18 GiB (94%)
Default : Yes
Forced : No

Audio
ID : 2
Format : AC-3
Format/Info : Audio Coding 3
Commercial name : Dolby Digital
Codec ID : A_AC3
Duration : 1 h 37 min
Bit rate mode : Constant
Bit rate : 384 kb/s
Channel(s) : 6 channels
Channel layout : L R C LFE Ls Rs
Sampling rate : 48.0 kHz
Frame rate : 31.250 FPS (1536 SPF)
Compression mode : Lossy
Stream size : 268 MiB (6%)
Title : Original (KION)
Language : Russian
Service kind : Complete Main
Default : Yes
Forced : Yes




Скачать Честный развод через торрент https://i4-imageban-ru.translate.goog/out/2021/12/31/44cb1cec473057be48c6c93f35917e0a.jpg Скачать, смотреть онлайн Честный развод бесплантно в хорошем качестве Описание: Гена всю жизнь старался быть опорой семьи. Ради этого он даже отказался от бурной молодости и мечты стать звездой КВН. А когда ... 10 10 16
Info! Золотая раздача, скачанное не засчитывается.
Торрент: Зарегистрирован [2021-12-31 09:41] · скачан: 364 раз
Статус: √ проверено
Размер: 4.44 GB
Как cкачать? Как скачать Честный развод через торрент | UTorrent

% Раздел Тема Автор DL S | L
Наши новые фильмы 2020 - 2022 [ 1.56 GB ] Честный развод | | DLRip-AVC Lithuania Скачать
2 | 0
Наши новые фильмы 2020 - 2022 [ 1.45 GB ] Честный развод | | DLRip-AVC bober100 Скачать
1 | 0
Наши новые фильмы 2020 - 2022 [ 1.46 GB ] Честный развод | | DLRip bober100 Скачать
62 | 0
Наши фильмы (HD, WEB-DL 720p, 1080p) [ 2.87 GB ] Честный развод | | 720p bober100 Скачать
3 | 0

28-11-2019 20:33  


Отключить вcю реклaмy на сайте, в т.ч. и в плеере онлайн просмотра!

    Дорогой пользователь! Огромная просьба, поблагодарите релизера, оцените раздачу и оставьте свои комментарий, если Вы скачали Честный развод через торрент бесплатно!!
    Комментировать посты могут только пользователи прошедшие не сложную регистрацию
    Показать сообщения:    


    Честный развод через торрент
    Скачать бесплатно Честный развод
    Честный развод скачать торрент
    Честный развод смотреть онлайн
    Cкачать фильм Честный развод бесплатно
    Честный развод скачать торрент в хорошем качестве
    Честный развод смотреть онлайн бесплатно в хорошем качестве
    Вы не можете начинать темы
    Вы не можете отвечать на сообщения
    Вы не можете редактировать свои сообщения
    Вы не можете удалять свои сообщения
    Вы не можете голосовать в опросах
    Вы не можете прикреплять файлы к сообщениям
    Вы можете скачивать файлы