Всегда рабочее зеркало просто перед .vidak.icu напиши любое слово или цифру, Пример http://xko.vidak.icu

>

7.4

iTunes

7.4

2 сезон

6.6

iTunes

1

7.4

2 сезон

7.2

iTunes

6.0

MVO

13

6.1

iTunes

8.3

Пиратка

30

ULTIMATE

pack

9.9

Лицензия

ВАЖНО

ИГРА 18+

pack

7.3

RePack

MK11

7.7

RePack

jed

7.8

RePack

fifa19

8.5

RePack

RDR2

RePack

NEED FOR SPEED™ PAYBACK

1 сезон

9 сезон

Бесстыжие 9 сезон

Все сериалы

все сериалы на PB.wtf

RePack

FAR CRY 5

Anonymous, добрый день, мы катастрофически не успеваем собрать деньги на оплату серверов, помогите нам пожалуйста 5,10,15р., для нас важна любая помощь . В качестве благодарности мы отключим Вам всю рекламу на сайте (укажите свой ник в строку Ваше имя)!

×
  
Magnet ссылка

Приключения Пильи / Pil / Pil's Adventures (Жюльен Фурне) [2021, Мультфильм, фэнтези, приключения, WEB-DL 720p] DUB [Кинопоиск HD] pb.wtf

Приключения Пильи через торрент pb.wtf

Раздают: 12 [ 220 KB/s ]
Размер: 3.03 GB | Добавлен: 21 д. назад | Торрент скачан:133 раза
Смотреть онлайн Приключения Пильи | Скачать    Ребята, помогите собрать деньги на оплату серверов!!!

01-01-2022 09:30 Приключения Пильи Скачать торрент  

Приключения Пильи
Pil | Pil's Adventures

Год выпуска: 2021
Страна: Франция
Выпущено: TAT Productions, SND Groupe M6, France 3 Cinéma
Жанр: Мультфильм, фэнтези, приключения
Продолжительность: 01:28:44
Перевод: Дублированный | Кинопоиск HD
Субтитры: отсутствуют

Режиссер: Жюльен Фурне

rating

В ролях: Кэйси Чейз, Пол Борн, Жюльен Крампон, Пьер Тессьер, Готье Батту, Барбара Тиссье, Эммануэль Кюртиль, Энрике Карбальидо, Лоран Морель, Мартин Ирзенски

Описание: Пилья — озорная девчонка-сирота, живущая на улицах города Туманвиль. Однажды, чтобы не попасться стражам замка, она наряжается принцессой и оказывается втянута в невероятные приключения. Жестокий Тристан хочет захватить трон и с помощью магического зелья превращает принца Роланда в… котоцыпа (наполовину кота, наполовину курицу). Пилья — единственная, кто может спасти принца и все королевство. Вместе со своими немножко безумными помощниками — шутом, стражем и тремя ласками — Пилья отправляется на поиски противоядия. И, если все получится (а на пути их ждёт немало опасностей), они смогут обрести не только спасительное снадобье, но и дружную семью, которой у них никогда не было.

Качество: WEB-DL 720p
Формат: MKV

Видео: MPEG-4 AVC, 4000 Kb/s, 1280x536, 24,000 fps
Аудио #01: 48 kHz, AC3, 5.1, 448 Kbps | Дублированный | Кинопоиск HD | RUS |
Аудио #02: 48 kHz, E-AC3, 5.1, 448 Kbps | Дублированный | Кинопоиск HD | RUS |
скриншот  скриншот  скриншот  скриншот  

Complete name : Priklyucheniya.Pili.2021.KP.WEB-DL.720p.ELEKTRI4KA.UNIONGANG.mkv
Format : Matroska
Format version : Version 4
File size : 3.03 GiB
Duration : 1 h 28 min
Overall bit rate : 4 887 kb/s
Movie name : Priklyucheniya.Pili.2021.KP.WEB-DL.720p.ELEKTRI4KA.UNIONGANG.
Encoded date : UTC 2022-01-01 01:21:09
Writing application : mkvmerge v63.0.0 ('Everything') 32-bit
Writing library : libebml v1.4.2 + libmatroska v1.6.4

Video
ID : 1
Format : AVC
Format/Info : Advanced Video Codec
Format profile : High@L3.1
Format settings : CABAC / 6 Ref Frames
Format settings, CABAC : Yes
Format settings, Reference frames : 6 frames
Codec ID : V_MPEG4/ISO/AVC
Duration : 1 h 28 min
Bit rate : 4 000 kb/s
Width : 1 280 pixels
Height : 536 pixels
Display aspect ratio : 2.40:1
Frame rate mode : Constant
Frame rate : 24.000 FPS
Color space : YUV
Chroma subsampling : 4:2:0
Bit depth : 8 bits
Scan type : Progressive
Bits/(Pixel*Frame) : 0.243
Stream size : 2.47 GiB (82%)
Writing library : x264 core 157
Encoding settings : cabac=1 / ref=6 / deblock=1:0:0 / analyse=0x3:0x133 / me=umh / subme=10 / psy=1 / psy_rd=1.00:0.00 / mixed_ref=1 / me_range=24 / chroma_me=1 / trellis=2 / 8x8dct=1 / cqm=0 / deadzone=21,11 / fast_pskip=1 / chroma_qp_offset=-2 / threads=17 / lookahead_threads=2 / sliced_threads=0 / nr=0 / decimate=1 / interlaced=0 / bluray_compat=0 / constrained_intra=0 / bframes=8 / b_pyramid=2 / b_adapt=2 / b_bias=0 / direct=3 / weightb=1 / open_gop=0 / weightp=2 / keyint=192 / keyint_min=96 / scenecut=40 / intra_refresh=0 / rc_lookahead=60 / rc=2pass / mbtree=1 / bitrate=4000 / ratetol=1.0 / qcomp=0.60 / qpmin=0 / qpmax=69 / qpstep=4 / cplxblur=20.0 / qblur=0.5 / vbv_maxrate=4400 / vbv_bufsize=6000 / nal_hrd=none / filler=0 / ip_ratio=1.40 / aq=1:1.00
Default : Yes
Forced : No

Audio #1
ID : 2
Format : AC-3
Format/Info : Audio Coding 3
Commercial name : Dolby Digital
Codec ID : A_AC3
Duration : 1 h 28 min
Bit rate mode : Constant
Bit rate : 448 kb/s
Channel(s) : 6 channels
Channel layout : L R C LFE Ls Rs
Sampling rate : 48.0 kHz
Frame rate : 31.250 FPS (1536 SPF)
Compression mode : Lossy
Stream size : 284 MiB (9%)
Title : Original AC3 (KinoPoisk HD)
Language : Russian
Service kind : Complete Main
Default : Yes
Forced : Yes

Audio #2
ID : 3
Format : E-AC-3
Format/Info : Enhanced AC-3
Commercial name : Dolby Digital Plus
Codec ID : A_EAC3
Duration : 1 h 28 min
Bit rate mode : Constant
Bit rate : 448 kb/s
Channel(s) : 6 channels
Channel layout : L R C LFE Ls Rs
Sampling rate : 48.0 kHz
Frame rate : 31.250 FPS (1536 SPF)
Compression mode : Lossy
Stream size : 284 MiB (9%)
Title : Original AC3 (KinoPoisk HD)
Language : Russian
Service kind : Complete Main
Default : No
Forced : No

pb.wtf



Скачать Приключения Пильи через торрент https://i2.imageban.ru/out/2022/01/01/d36d645e38df2bb399794a4872490fcd.jpg Скачать, смотреть онлайн Приключения Пильи бесплантно в хорошем качестве Описание: Пилья — озорная девчонка-сирота, живущая на улицах города Туманвиль. Однажды, чтобы не попасться стражам замка, она наряжается ... 10 10 8
Торрент: Зарегистрирован [2022-01-01 09:30] · скачан: 133 раз
Статус: √ проверено
Размер: 3.03 GB
Как cкачать? Как скачать Приключения Пильи через торрент | UTorrent

28-11-2019 20:33  

Отключить всю рекламу на сайте

    Дорогой пользователь! Огромная просьба, поблагодарите релизера, оцените раздачу и оставьте свои комментарий, если Вы скачали Приключения Пильи через торрент бесплатно!
    Комментировать посты могут только пользователи прошедшие не сложную регистрацию
    Показать сообщения:    

    Приключения Пильи через торрент
    Скачать бесплатно Приключения Пильи
    Приключения Пильи скачать торрент
    Приключения Пильи смотреть онлайн
    Cкачать фильм Приключения Пильи бесплатно
    Приключения Пильи скачать торрент в хорошем качестве
    Приключения Пильи смотреть онлайн бесплатно в хорошем качестве


    Вы не можете начинать темы
    Вы не можете отвечать на сообщения
    Вы не можете редактировать свои сообщения
    Вы не можете удалять свои сообщения
    Вы не можете голосовать в опросах
    Вы не можете прикреплять файлы к сообщениям
    Вы можете скачивать файлы