Доктор Стрэндж

Лицензия

Добыча

Дубляж

Уэнсдэй

1 сезон

Тор

Дубляж

В эфире

Дубляж

Там, где раки поют

MVO

Властелин колец

1 сезон

Deluxe

pack

Рекомендуем

30

Пиратка

ВАЖНО

ВАЖНО

Ghostwire

Пиратка

jed

RePack

nioh2

RePack

RDR2

RePack

NEED FOR SPEED™ PAYBACK

RePack

скачать торрент

Кинопоиск HD

Острые козырьки 6 сезон

6 сезон

FAR CRY 6

RePack

скачать торрент

Лицензия

скачать торрент

MVO

1

1 сезон

скачать торрент

1 сезон

скачать торрент

Лицензия

  

Мой папа не подарок (Александр Карпиловский, Родион Николайчук) [2021, Комедия, семейный, WEB-DL 1080p] [KION]

Мой папа не подарок через торрент pb.wtf

Раздают: 1 [ 0 KB/s ]
Размер: 4.92 GB | Добавлен: 11 мес. назад | Торрент скачан:45 раз
Смотреть онлайн | Скачать   

02-01-2022 17:05 Мой папа не подарок Скачать торрент  

Мой папа не подарок
Год выпуска: 2021
Страна: Россия
Студия: Киностудия КИТ
Жанр: Комедия, семейный
Продолжительность: 01:44:23
Перевод: Не требуется | KION
Субтитры: отсутствуют

Режиссер: Александр Карпиловский, Родион Николайчук



В ролях: Никита Табунщик, Полина Гухман, Тимофей Трибунцев, Ольга Медынич, Алексей Кравченко, Максим Лагашкин, Дмитрий Вьюшкин, Анастасия Калашникова, Екатерина Стулова, Виктор Васильев

Описание: Макс никогда в жизни так не ждал Нового года. Косплей-фестиваль геймеров! Приз лучшего игрока! Но вдруг на его пути возникает дерзкая девчонка Венера и ее суровая мама-полицейский. Однако Макса не остановить. Он всё сделает, чтобы оказаться на Косплее. Выиграет гонку на супердронах. Обезвредит таинственного злодея. Провернёт ограбление и спасёт отца от банкротства. И ничего бы этого не произошло, если бы не изобретение его папы - фантастический и фантастически смышлёный дрон с повадками милого зверька.

Качество: WEB-DL 1080p
Формат: MKV

Видео: MPEG-4 AVC, 6144 Kb/s, 1920x1080, 24.000 fps
Аудио: 48 kHz, AC3 Dolby Digital, 3/2 (L, C, R, l, r) + LFE ch, ~640 Kbps
скриншот  скриншот  скриншот  скриншот  

Complete name : Moy.papa.ne.podarok.2021.WEB-DL.1080p.ELEKTRI4KA.UNIONGANG.mkv
Format : Matroska
Format version : Version 4
File size : 4.92 GiB
Duration : 1 h 44 min
Overall bit rate mode : Constant
Overall bit rate : 6 753 kb/s
Movie name : Moy.papa.ne.podarok.2021.WEB-DL.1080p.ELEKTRI4KA.UNIONGANG.
Encoded date : UTC 2022-01-01 10:31:37
Writing application : mkvmerge v63.0.0 ('Everything') 32-bit
Writing library : libebml v1.4.2 + libmatroska v1.6.4

Video
ID : 1
Format : AVC
Format/Info : Advanced Video Codec
Format profile : [email protected]
Format settings : 2 Ref Frames
Format settings, CABAC : No
Format settings, Reference frames : 2 frames
Codec ID : V_MPEG4/ISO/AVC
Duration : 1 h 44 min
Bit rate mode : Constant
Bit rate : 6 144 kb/s
Width : 1 920 pixels
Height : 1 080 pixels
Display aspect ratio : 16:9
Frame rate mode : Constant
Frame rate : 24.000 FPS
Color space : YUV
Chroma subsampling : 4:2:0
Bit depth : 8 bits
Scan type : Progressive
Bits/(Pixel*Frame) : 0.123
Stream size : 4.46 GiB (90%)
Default : Yes
Forced : No

Audio
ID : 2
Format : AC-3
Format/Info : Audio Coding 3
Commercial name : Dolby Digital
Codec ID : A_AC3
Duration : 1 h 44 min
Bit rate mode : Constant
Bit rate : 640 kb/s
Channel(s) : 6 channels
Channel layout : L R C LFE Ls Rs
Sampling rate : 48.0 kHz
Frame rate : 31.250 FPS (1536 SPF)
Compression mode : Lossy
Stream size : 478 MiB (9%)
Title : Original (KION)
Language : Russian
Service kind : Complete Main
Default : Yes
Forced : Yes




Скачать Мой папа не подарок через торрент https://i3-imageban-ru.translate.goog/out/2022/01/01/5f8d126f916407336d07e5c4f3d55816.jpg Скачать, смотреть онлайн Мой папа не подарок бесплантно в хорошем качестве Описание: Макс никогда в жизни так не ждал Нового года. Косплей-фестиваль геймеров! Приз лучшего игрока! Но вдруг на его пути возникает ... 10 10 3
Торрент: Зарегистрирован [2022-01-02 17:05] · скачан: 45 раз
Статус: √ проверено
Размер: 4.92 GB
Как cкачать? Как скачать Мой папа не подарок через торрент | UTorrent

% Раздел Тема Автор DL S | L
Детские отечественные фильмы [ 1.89 GB ] Мой папа не подарок | | DLRip-AVC Lithuania Скачать
1 | 0
Детские отечественные фильмы [ 1.46 GB ] Мой папа не подарок | | DLRip bober100 Скачать
1 | 0

28-11-2019 20:33  


Отключить вcю реклaмy на сайте, в т.ч. и в плеере онлайн просмотра!

    Дорогой пользователь! Огромная просьба, поблагодарите релизера, оцените раздачу и оставьте свои комментарий, если Вы скачали Мой папа не подарок через торрент бесплатно!!
    Комментировать посты могут только пользователи прошедшие не сложную регистрацию
    Показать сообщения:    


    Мой папа не подарок через торрент
    Скачать бесплатно Мой папа не подарок
    Мой папа не подарок скачать торрент
    Мой папа не подарок смотреть онлайн
    Cкачать фильм Мой папа не подарок бесплатно
    Мой папа не подарок скачать торрент в хорошем качестве
    Мой папа не подарок смотреть онлайн бесплатно в хорошем качестве
    Вы не можете начинать темы
    Вы не можете отвечать на сообщения
    Вы не можете редактировать свои сообщения
    Вы не можете удалять свои сообщения
    Вы не можете голосовать в опросах
    Вы не можете прикреплять файлы к сообщениям
    Вы можете скачивать файлы
    Мой папа не подарок [2021, Комедия, семейный, WEB-DL 1080p] [KION] смотреть онлайн, скачать торрент picoco.icu