Достать ножи: Стеклянная луковица

MVO

Добыча

Дубляж

Уэнсдэй

1 сезон

Тор

Дубляж

13 клиническая

1 сезон

Жестокая ночь

MVO

Одни из нас

1 сезон

Deluxe

pack

Рекомендуем

30

Пиратка

ВАЖНО

ВАЖНО

Ghostwire

Пиратка

jed

RePack

nioh2

RePack

RDR2

RePack

NEED FOR SPEED™ PAYBACK

RePack

скачать торрент

Кинопоиск HD

Острые козырьки 6 сезон

6 сезон

FAR CRY 6

RePack

скачать торрент

Лицензия

скачать торрент

MVO

1

1 сезон

скачать торрент

1 сезон

скачать торрент

Лицензия

  

Ряд 19 (Александр Бабаев) [2021, Триллер, WEB-DLRip-AVC] [ОККО]

Ряд 19 через торрент pb.wtf

Размер: 1.09 GB | Добавлен: 1 год 1 мес. назад | Торрент скачан:97 раз
Смотреть онлайн | Скачать | Поддержите нас   

03-01-2022 12:15 Ряд 19 Скачать торрент  

Ряд 19
Год выпуска: 2021
Страна: Россия
Студия: Централ Партнершип, Киностудия КИТ, IKa film
Жанр: Триллер
Продолжительность: 01:17:42
Перевод: Не требуется | ОККО
Субтитры: отсутствуют

Режиссер: Александр Бабаев

rating

В ролях: Светлана Иванова, Вольфганг Черни, Марта Кесслер, Екатерина Вилкова, Анатолий Кот, Виталия Корниенко, Денис Ясик, Анна Глаубэ, Виктория Корлякова, Иван Верховых

Описание: Молодая врач Катя с 6-летней дочерью Дианой в страшную непогоду летит ночным рейсом. В полупустом салоне самолёта начинают происходить необъяснимые события, выходящие за рамки реальности. Кате предстоит посмотреть в глаза собственному страху и заново пережить главный кошмар свой детский кошмар.

Качество: WEB-DLRip-AVC
Формат: MKV

Видео: MPEG-4 AVC, 1024x428 at 24.000 fps, [email protected], ~1821 kbps
Аудио: 48.0 kHz, AC3 Dolby Digital, 2/0 (L,R) ch, ~ 192 kbps
скриншот  скриншот  скриншот  скриншот  скриншот  

x264 [info]: frame I:848 Avg QP:13.52 size: 61695
x264 [info]: frame P:25021 Avg QP:16.49 size: 21509
x264 [info]: frame B:86023 Avg QP:18.20 size: 5459

General
Unique ID : 204080743040481476128810079968311250700 (0x9988857B16E681CB50C93BED935A0F0C)
Complete name : I:Ryad.19.2021.WEB-DLRip.x264.mkv
Format : Matroska
Format version : Version 4
File size : 1.09 GiB
Duration : 1 h 17 min
Overall bit rate : 2 014 kb/s
Encoded date : UTC 2022-01-02 10:24:16
Writing application : mkvmerge v64.0.0 ('Willows') 64-bit
Writing library : libebml v1.4.2 + libmatroska v1.6.4
Cover : Yes
Attachments : cover.jpg / cover 2.jpg

Video
ID : 1
Format : AVC
Format/Info : Advanced Video Codec
Format profile : [email protected]
Format settings : CABAC / 12 Ref Frames
Format settings, CABAC : Yes
Format settings, Reference : 12 frames
Codec ID : V_MPEG4/ISO/AVC
Duration : 1 h 17 min
Bit rate : 1 821 kb/s
Width : 1 024 pixels
Height : 428 pixels
Display aspect ratio : 2.40:1
Frame rate mode : Constant
Frame rate : 24.000 FPS
Color space : YUV
Chroma subsampling : 4:2:0
Bit depth : 8 bits
Scan type : Progressive
Bits/(Pixel*Frame) : 0.173
Stream size : 1 011 MiB (90%)
Title : -=DoMiNo=-
Writing library : x264 core 164 r3081 19856cc
Encoding settings : cabac=1 / ref=12 / deblock=1:-2:-2 / analyse=0x3:0x133 / me=umh / subme=10 / psy=1 / psy_rd=1.00:0.15 / mixed_ref=1 / me_range=32 / chroma_me=1 / trellis=2 / 8x8dct=1 / cqm=0 / deadzone=21,11 / fast_pskip=0 / chroma_qp_offset=-3 / threads=13 / lookahead_threads=3 / sliced_threads=0 / nr=0 / decimate=0 / interlaced=0 / bluray_compat=0 / constrained_intra=0 / bframes=10 / b_pyramid=2 / b_adapt=2 / b_bias=0 / direct=3 / weightb=1 / open_gop=0 / weightp=2 / keyint=250 / keyint_min=23 / scenecut=40 / intra_refresh=0 / rc_lookahead=60 / rc=2pass / mbtree=0 / bitrate=1821 / ratetol=1.0 / qcomp=0.65 / qpmin=0 / qpmax=69 / qpstep=4 / cplxblur=20.0 / qblur=0.5 / vbv_maxrate=50000 / vbv_bufsize=62500 / nal_hrd=none / filler=0 / ip_ratio=1.40 / pb_ratio=1.30 / aq=1:0.90
Language : Russian
Default : Yes
Forced : No
Color range : Limited
Color primaries : BT.709
Transfer characteristics : BT.709
Matrix coefficients : BT.709

Audio
ID : 2
Format : AC-3
Format/Info : Audio Coding 3
Commercial name : Dolby Digital
Codec ID : A_AC3
Duration : 1 h 17 min
Bit rate mode : Constant
Bit rate : 192 kb/s
Channel(s) : 2 channels
Channel layout : L R
Sampling rate : 48.0 kHz
Frame rate : 31.250 FPS (1536 SPF)
Compression mode : Lossy
Stream size : 107 MiB (10%)
Language : Russian
Service kind : Complete Main
Default : Yes
Forced : No




Скачать Ряд 19 через торрент https://i7-imageban-ru.translate.goog/out/2022/01/02/a7e2ae4639b6b92d55ba32b6994345b4.jpg Скачать, смотреть онлайн Ряд 19 бесплантно в хорошем качестве Описание: Молодая врач Катя с 6-летней дочерью Дианой в страшную непогоду летит ночным рейсом. В полупустом салоне самолёта начинают ... 9.2 10 11
Торрент: Зарегистрирован [2022-01-03 12:15] · скачан: 97 раз
Статус: √ проверено
Размер: 1.09 GB
Как cкачать? Как скачать Ряд 19 через торрент | UTorrent

% Раздел Тема Автор DL S | L
Наши новые фильмы 2020 - 2023 [ 716 MB ] Ряд 19 | | HDRip, coc900 Скачать
1 | 0
Наши фильмы (Blu-ray, BD-Remux, HDDVD) [ 18.39 GB ] Ряд 19 | | 1080p bober100 Скачать
1 | 0
Наши новые фильмы 2020 - 2023 [ 1.27 GB ] Ряд 19 | OKKO | DLRip-AVC Lithuania Скачать
1 | 0
Наши фильмы (HD, WEB-DL 720p, 1080p) [ 6.34 GB ] Ряд 19 | | 1080p bober100 Скачать
1 | 1
Наши фильмы (HD, WEB-DL 720p, 1080p) [ 1.83 GB ] Ряд 19 | | 720p bober100 Скачать
1 | 0
Наши новые фильмы 2020 - 2023 [ 1.09 GB ] Ряд 19 | | DLRip bober100 Скачать
1 | 0

28-11-2019 20:33  


Отключить вcю реклaмy на сайте, в т.ч. и в плеере онлайн просмотра!

03-01-2022 12:56 Ряд 19 Скачать торрент  

.....какая .



03-01-2022 14:44 Ряд 19 Скачать торрент  

pif990 писал(а):

.....какая .

совсем ужасно или на раз пойдет?



    Дорогой пользователь! Огромная просьба, поблагодарите релизера, оцените раздачу и оставьте свои комментарий, если Вы скачали Ряд 19 через торрент бесплатно!!
    Комментировать посты могут только пользователи прошедшие не сложную регистрацию
    Показать сообщения:    


    Ряд 19 через торрент
    Скачать бесплатно Ряд 19
    Ряд 19 скачать торрент
    Ряд 19 смотреть онлайн
    Cкачать фильм Ряд 19 бесплатно
    Ряд 19 скачать торрент в хорошем качестве
    Ряд 19 смотреть онлайн бесплатно в хорошем качестве
    Вы не можете начинать темы
    Вы не можете отвечать на сообщения
    Вы не можете редактировать свои сообщения
    Вы не можете удалять свои сообщения
    Вы не можете голосовать в опросах
    Вы не можете прикреплять файлы к сообщениям
    Вы можете скачивать файлы
    Ряд 19 [2021, Триллер, WEB-DLRip-AVC] [ОККО] смотреть онлайн, скачать торрент picoco.icu