Доктор Стрэндж

Лицензия

Добыча

MVO

Дом дракона

1 сезон

Тор

Лицензия

Мэверик

Лицензия

Там, где раки поют

MVO

Властелин колец

1 сезон

Ultimate

pack

Рекомендуем

30

Repack

ВАЖНО

ВАЖНО

Ghostwire

RePack

jed

RePack

nioh2

RePack

RDR2

RePack

NEED FOR SPEED™ PAYBACK

RePack

скачать торрент

Кинопоиск HD

Острые козырьки 6 сезон

6 сезон

FAR CRY 6

RePack

скачать торрент

Лицензия

скачать торрент

MVO

1

1 сезон

скачать торрент

1 сезон

скачать торрент

Лицензия

  

Вокруг света за 80 дней / Around the World in 80 Days / Сезон: 1 / Серии: 1-8 из 8 (Стив Бэррон) [2021, Комедия, приключения, WEB-DL 1080p] MVO [Iyuno-SDI Group]

Вокруг света за 80 дней через торрент pb.wtf

Раздают: 3 [ 0 KB/s ] Качают: 1 [ 0 KB/s ]
Размер: 14.35 GB | Добавлен: 9 мес. назад | Торрент скачан:152 раза
Смотреть онлайн Вокруг света за 80 дней | Скачать   

03-01-2022 13:54 Вокруг света за 80 дней Скачать торрент  

Вокруг света за 80 дней | Around the World in 80 Days
«***»
Год выпуска: 2021
Страна: Франция, Германия, Италия
Выпущено: ФFederation Entertainment, France Télévisions, RAI Radiotelevisione Italiana
Жанр: Комедия, приключения
Продолжительность: ~ 00:47:00 серия
Перевод: Профессиональный (многоголосый) | Iyuno-SDI Group
Субтитры: отсутствуют

Режиссер: Стив Бэррон

rating

В ролях: Дэвид Теннант, Леони Бенеш, Питер Салливан, Ибрагим Кома, Энтони Флэнеган, Шивани Гаи, Ивэн Хенгст, Дэвид Шервуд, Чарли Хэмблетт, Свен Райгрок, Джейсон Уоткинс, Леон Клайнгман, Реза Диако, Джефф Роул

Описание: Образцовый и педантичный лондонский джентльмен Филеас Фогг (Дэвид Теннант) давно мечтал о путешествиях, однако так ни разу и не собрался в путь. Впрочем, шанс доказать себе и другим членам Реформ-клуба, посмеивающимся над его прошлыми несбывшимися начинаниями, что мир может ему покориться, представляется в тот момент, когда выходит статья, в которой автор выражает мысль, что после окончания строительства железной дороги за 80 дней можно совершить целое кругосветное путешествие. Поддерживая себя не самыми радостными, но в какой-то мере вдохновляющими воспоминаниями, мистер Фогг заключает пари и намерен реализовать задуманное во что бы то ни стало. Вот только в компании у него — весьма своенравный слуга Паспарту (Ибрагим Кома), который бежит от своих темных тайн, и бойкая журналистка Эбигейл Фикс (Леоне Бенеш), видящая в сопровождении мистера Фогга возможность получить признание читателей и собственного отца, скептически настроенного насчет ее журналистской карьеры. Впрочем, быть может, для самого захватывающего приключения этого более чем достаточно?

Качество: WEB-DL 1080p
Формат: MKV

Видео: MPEG-4 AVC, ~ 5120 kbps, 1920x960 at 25.000 fps
Аудио: 48.0 kHz, AC3 Dolby Digital, 2/0 (L,R) ch, ~ 256 kbps
скриншот  скриншот  скриншот  скриншот  

Общее
Уникальный идентификатор : 170440148045384627218691407582571786136 (0x8039941791C1FA7EBDE824888F3BEF98)
Полное имя : D:\Вокруг света за 80 дней. Мини-сериал. 2021. EniaHD (WEB-DLRip 1080p)\Around.the.World.in.80.Days.s01e01. Эпизод 1.mkv
Формат : Matroska
Версия формата : Version 2
Размер файла : 1,79 Гбайт
Продолжительность : 47 м. 50 с.
Общий поток : 5 358 Кбит/сек
Название фильма : Around.the.World.in.80.Days.S01E01.WEB-DLRip [email protected]
Дата кодирования : UTC 2022-01-03 09:11:24
Программа кодирования : mkvmerge v6.9.1 ('Blue Panther') 32bit built on Apr 18 2014 18:15:44
Библиотека кодирования : libebml v1.3.0 + libmatroska v1.4.1
Обложка : Yes
Attachments : Cover_80.Days.jpg

Видео
Идентификатор : 1
Формат : AVC
Формат/Информация : Advanced Video Codec
Профиль формата : [email protected]
Настройки формата : CABAC / 4 Ref Frames
Параметр CABAC формата : Да
Параметр RefFrames формата : 4 кадра
Идентификатор кодека : V_MPEG4/ISO/AVC
Продолжительность : 47 м. 50 с.
Битрейт : 5 120 Кбит/сек
Ширина : 1 920 пикселей
Высота : 960 пикселей
Соотношение сторон : 2,000
Режим частоты кадров : Постоянный
Частота кадров : 25,000 кадров/сек
Цветовое пространство : YUV
Субдискретизация насыщенности : 4:2:0
Битовая глубина : 8 бит
Тип развёртки : Прогрессивная
Бит/(Пиксели*Кадры) : 0.111
Размер потока : 1,67 Гбайт (93%)
Библиотека кодирования : x264 core 152 r2854 e9a5903
Настройки программы : cabac=1 / ref=3 / deblock=1:0:0 / analyse=0x3:0x113 / me=hex / subme=7 / psy=1 / psy_rd=1.00:0.00 / mixed_ref=1 / me_range=16 / chroma_me=1 / trellis=1 / 8x8dct=1 / cqm=0 / deadzone=21,11 / fast_pskip=1 / chroma_qp_offset=-2 / threads=30 / lookahead_threads=5 / sliced_threads=0 / nr=0 / decimate=1 / interlaced=0 / bluray_compat=0 / constrained_intra=0 / bframes=6 / b_pyramid=2 / b_adapt=1 / b_bias=0 / direct=1 / weightb=1 / open_gop=0 / weightp=2 / keyint=50 / keyint_min=26 / scenecut=0 / intra_refresh=0 / rc_lookahead=40 / rc=2pass / mbtree=1 / bitrate=5120 / ratetol=1.0 / qcomp=0.60 / qpmin=0 / qpmax=69 / qpstep=4 / cplxblur=20.0 / qblur=0.5 / vbv_maxrate=7680 / vbv_bufsize=20480 / nal_hrd=none / filler=0 / ip_ratio=1.40 / aq=1:1.00
Язык : English
Default : Да
Forced : Нет

Аудио
Идентификатор : 2
Формат : AC-3
Формат/Информация : Audio Coding 3
Коммерческое название : Dolby Digital
Идентификатор кодека : A_AC3
Продолжительность : 47 м. 50 с.
Вид битрейта : Постоянный
Битрейт : 256 Кбит/сек
Каналы : 2 канала
Channel layout : L R
Частота : 48,0 КГц
Частота кадров : 31,250 кадров/сек (1536 SPF)
Метод сжатия : С потерями
Размер потока : 87,6 Мбайт (5%)
Заголовок : Iyuno-SDI Group
Язык : Russian
Service kind : Complete Main
Default : Да
Forced : Нет

Когда раздача ведётся путём добавления новых серий, при каждом добавлении создётся новый торрент. Чтобы начать докачку новой серии, пользователям необходимо сделать следующее:
(1) остановить скачивание,
(2) удалить старый торрент у себя из клиента (старые серии удалять не надо),
(3) скачать новый торрент и запустить его у себя в клиенте вместо старого, при этом указать клиенту путь в старую папку, куда и должно происходить скачивание новых серий.
Ваш клиент при этом должен произвести хеширование (проверку) старой папки (если не производит сам - помогите ему сделать это), и будет докачивать только те серии, которых у вас ещё нет. Старые серии при этом не удаляются, а продолжают раздаваться!
Eсли вы уже удалили старые серии, то предотвратить повторную закачку старых серий можно, отжав галочку в соответсвующих местах при запуске нового торрента. По возможности, желательно не удалять старые серии как можно дольше, чтобы релизёр не столько продолжал раздавать старые серии, а смог сконцентрироваться на новых.




Скачать Вокруг света за 80 дней через торрент https://i2-imageban-ru.translate.goog/out/2022/01/02/afe30765e24cebfb73566732a20aaffd.png Скачать, смотреть онлайн Вокруг света за 80 дней бесплантно в хорошем качестве Описание: Образцовый и педантичный лондонский джентльмен Филеас Фогг (Дэвид Теннант) давно мечтал о путешествиях, однако так ни разу и не ... 10 10 4
Торрент: Зарегистрирован [2022-01-03 13:54] · скачан: 152 раз
Статус: √ проверено
Размер: 14.35 GB
Как cкачать? Как скачать Вокруг света за 80 дней через торрент | UTorrent

% Раздел Тема Автор DL S | L
Зарубежные сериалы [ 5.36 GB ] Вокруг света за 80 дней / Around the World in 80 Days / Сезон: 1 / Серии: 1-8 из 8 | MVO | DLRip bober100 Скачать
1 | 0
Зарубежные сериалы [ 9.4 GB ] Вокруг света за 80 дней / Around the World in 80 Days / Сезон: 1 / Серии: 1-8 из 8 | HDRezka Studio | 720p killermax2013 Скачать
1 | 0



Последний раз редактировалось: bober100 (2022-01-04 18:29), всего редактировалось 4 раз(а)

28-11-2019 20:33  

Отключить вcю реклaмy на сайте

03-01-2022 14:26 Вокруг света за 80 дней Скачать торрент  

Всё правильно, слуга должен быть черным



    Дорогой пользователь! Огромная просьба, поблагодарите релизера, оцените раздачу и оставьте свои комментарий, если Вы скачали Вокруг света за 80 дней через торрент бесплатно!!
    Комментировать посты могут только пользователи прошедшие не сложную регистрацию
    Показать сообщения:    


    Вокруг света за 80 дней через торрент
    Скачать бесплатно Вокруг света за 80 дней
    Вокруг света за 80 дней скачать торрент
    Вокруг света за 80 дней смотреть онлайн
    Cкачать фильм Вокруг света за 80 дней бесплатно
    Вокруг света за 80 дней скачать торрент в хорошем качестве
    Вокруг света за 80 дней смотреть онлайн бесплатно в хорошем качестве
    Вы не можете начинать темы
    Вы не можете отвечать на сообщения
    Вы не можете редактировать свои сообщения
    Вы не можете удалять свои сообщения
    Вы не можете голосовать в опросах
    Вы не можете прикреплять файлы к сообщениям
    Вы можете скачивать файлы