Всегда рабочее зеркало без VPN и Proxy просто перед .vidak.icu напиши любое слово или цифру, Пример http://znz0.vidak.icu

Лицензия

MVO

1 сезон

1

1 сезон

iTunes

1 сезон

13

1 сезон

Deluxe

pack

Рекомендуем

Repack

30

ВАЖНО

RePack

MK11

RePack

jed

RePack

fifa19

RePack

RDR2

RePack

NEED FOR SPEED™ PAYBACK

Кинопоиск HD

6 сезон

 Острые козырьки 6 сезон

Все сериалы

все сериалы на PB.wtf

RePack

FAR CRY 5
  
Magnet ссылка

Охотники за привидениями: Наследники / Ghostbusters: Afterlife (Джейсон Райтман) [2021, Фантастика, комедия, боевик, фэнтези, UHD WEB-DL 2160p] DUB [СинеЛаб СаундМикс / Кинопоиск HD] pb.wtf

Охотники за привидениями: Наследники через торрент pb.wtf

Раздают: 4 [ 0 KB/s ]
Размер: 14.3 GB | Добавлен: 7 мес. назад | Торрент скачан:798 раз
Смотреть онлайн Охотники за привидениями: Наследники | Скачать    Ребята, помогите собрать деньги на оплату серверов!!!

04-01-2022 13:34 Охотники за привидениями: Наследники Скачать торрент  

Охотники за привидениями: Наследники
Ghostbusters: Afterlife

Год выпуска: 2021
Страна: США, Канада
Выпущено: Bron Studios, Columbia Pictures Corporation, Ghostcorps, Sony Pictures Entertainment (SPE), The Montecito Picture Company
Жанр: Фантастика, комедия, боевик, фэнтези
Продолжительность: 02:04:22
Перевод: Дублированный | СинеЛаб СаундМикс | Кинопоиск HD
Субтитры: Русские (Forced, full), английские

Режиссер: Джейсон Райтман

rating

В ролях: Маккенна Грейс, Финн Вулфард, Логан Ким, Кэрри Кун, Пол Радд, Билл Мюррей, Дэн Эйкройд, Эрни Хадсон, Сигурни Уивер, Селеста О’Коннор, Энни Поттс, Боким Вудбайн

Описание: Подростки Фиби и Тревор переезжают в город-призрак Саммервиль вместе со своей матерью Кэлли, которой в наследство от отца досталась разваливающаяся ферма и куча долгов. В городке периодически происходят загадочные землетрясения, а в гараже у дедушки Тревор находит то, что когда-то принадлежало охотникам за привидениями, — тем самым, что спасли Нью-Йорк от нечисти почти сорок лет назад. Значит ли это, что герои оказались здесь неслучайно? «Охотники за привидениями: Наследники» — продолжение культовой ленты Айвена Райтмана 1984 года о борцах с потусторонней нечистью.

Качество: UHD WEB-DL 2160p
Формат: MKV

Видео: 3840x1600 at 23.976 fps, MPEG-H HEVC HDR Video, ~ 14900 kbps avg
Аудио #01: 48 kHz, E-AC3, 5.1, 448 Kbps | Дублированный | Кинопоиск HD (СинеЛаб СаундМикс) | RUS |
Аудио #02: 48 kHz, AC3, 5.1, 448 Kbps | Дублированный | Кинопоиск HD (СинеЛаб СаундМикс) | RUS |
Аудио #03: 48 kHz, E-AC3+Atmos, 5.1, 768 Kbps | Оригинал | ENG |
скриншот  скриншот  скриншот  скриншот  скриншот  

General
Unique ID : 162872925389814386056111120163243952122 (0x7A882F35BE7A3CD6C525A49522AA07FA)
Complete name : D:VideoGhostbusters.Afterlife.2021.WEB-DL.2160p.HDR.seleZen.mkv
Format : Matroska
Format version : Version 4
File size : 14.3 GiB
Duration : 2 h 3 min
Overall bit rate : 16.5 Mb/s
Movie name : Ghostbusters Afterlife 2021 from seleZen
Encoded date : UTC 2022-01-04 21:37:58
Writing application : mkvmerge v59.0.0 ('Shining Star') 64-bit
Writing library : libebml v1.4.2 + libmatroska v1.6.4

Video
ID : 1
Format : HEVC
Format/Info : High Efficiency Video Coding
Format profile : Main [email protected]@Main
HDR format : SMPTE ST 2094 App 4, Version 1, HDR10+ Profile B compatible
Codec ID : V_MPEGH/ISO/HEVC
Duration : 2 h 3 min
Bit rate : 14.9 Mb/s
Width : 3 840 pixels
Height : 1 600 pixels
Display aspect ratio : 2.40:1
Frame rate mode : Constant
Frame rate : 23.976 (24000/1001) FPS
Color space : YUV
Chroma subsampling : 4:2:0
Bit depth : 10 bits
Bits/(Pixel*Frame) : 0.101
Stream size : 12.9 GiB (90%)
Language : English
Default : Yes
Forced : No
Color range : Limited
Color primaries : BT.2020
Transfer characteristics : PQ
Matrix coefficients : BT.2020 non-constant
Mastering display color pri : Display P3
Mastering display luminance : min: 0.0050 cd/m2, max: 4000 cd/m2
Maximum Content Light Level : 999 cd/m2
Maximum Frame-Average Light : 375 cd/m2

Audio #1
ID : 2
Format : E-AC-3
Format/Info : Enhanced AC-3
Commercial name : Dolby Digital Plus
Codec ID : A_EAC3
Duration : 2 h 3 min
Bit rate mode : Constant
Bit rate : 448 kb/s
Channel(s) : 6 channels
Channel layout : L R C LFE Ls Rs
Sampling rate : 48.0 kHz
Frame rate : 31.250 FPS (1536 SPF)
Compression mode : Lossy
Stream size : 397 MiB (3%)
Title : Dub
Language : Russian
Service kind : Complete Main
Default : Yes
Forced : Yes

Audio #2
ID : 3
Format : AC-3
Format/Info : Audio Coding 3
Commercial name : Dolby Digital
Codec ID : A_AC3
Duration : 2 h 3 min
Bit rate mode : Constant
Bit rate : 448 kb/s
Channel(s) : 6 channels
Channel layout : L R C LFE Ls Rs
Sampling rate : 48.0 kHz
Frame rate : 31.250 FPS (1536 SPF)
Compression mode : Lossy
Stream size : 397 MiB (3%)
Title : ub
Language : Russian
Service kind : Complete Main
Default : No
Forced : No

Audio #3
ID : 4
Format : E-AC-3 JOC
Format/Info : Enhanced AC-3 with Joint Object Coding
Commercial name : Dolby Digital Plus with Dolby Atmos
Codec ID : A_EAC3
Duration : 2 h 3 min
Bit rate mode : Constant
Bit rate : 768 kb/s
Channel(s) : 6 channels
Channel layout : L R C LFE Ls Rs
Sampling rate : 48.0 kHz
Frame rate : 31.250 FPS (1536 SPF)
Compression mode : Lossy
Stream size : 681 MiB (5%)
Title : Original Atmos
Language : English
Service kind : Complete Main
Default : No
Forced : No
Complexity index : 16
Number of dynamic objects : 15
Bed channel count : 1 channel
Bed channel configuration : LFE

Text #1
ID : 5
Format : UTF-8
Codec ID : S_TEXT/UTF8
Codec ID/Info : UTF-8 Plain Text
Duration : 2 h 2 min
Bit rate : 1 b/s
Count of elements : 31
Stream size : 1.10 KiB (0%)
Title : Forced
Language : Russian
Default : Yes
Forced : Yes

Text #2
ID : 6
Format : UTF-8
Codec ID : S_TEXT/UTF8
Codec ID/Info : UTF-8 Plain Text
Duration : 2 h 2 min
Bit rate : 63 b/s
Count of elements : 1209
Stream size : 57.4 KiB (0%)
Title : Full
Language : Russian
Default : No
Forced : No

Text #3
ID : 7
Format : UTF-8
Codec ID : S_TEXT/UTF8
Codec ID/Info : UTF-8 Plain Text
Duration : 2 h 2 min
Bit rate : 63 b/s
Count of elements : 1217
Stream size : 56.6 KiB (0%)
Title : Full
Language : Ukrainian
Default : No
Forced : No

Text #4
ID : 8
Format : UTF-8
Codec ID : S_TEXT/UTF8
Codec ID/Info : UTF-8 Plain Text
Duration : 1 h 58 min
Bit rate : 39 b/s
Count of elements : 1185
Stream size : 34.1 KiB (0%)
Title : Full
Language : English
Default : No
Forced : No

Text #5
ID : 9
Format : UTF-8
Codec ID : S_TEXT/UTF8
Codec ID/Info : UTF-8 Plain Text
Duration : 2 h 3 min
Bit rate : 48 b/s
Count of elements : 1694
Stream size : 43.8 KiB (0%)
Title : SDH
Language : English
Default : No
Forced : No

pb.wtf



Скачать Охотники за привидениями: Наследники через торрент https://d.radikal.ru/d37/2201/1a/08ab812626e9.jpg Скачать, смотреть онлайн Охотники за привидениями: Наследники бесплантно в хорошем качестве Описание: Подростки Фиби и Тревор переезжают в город-призрак Саммервиль вместе со своей матерью Кэлли, которой в наследство от отца ... 9.8 10 19
Info! Золотая раздача, скачанное не засчитывается.
Торрент: Зарегистрирован [2022-01-04 21:47] · скачан: 798 раз
Статус: √ проверено
Размер: 14.3 GB
Как cкачать? Как скачать Охотники за привидениями: Наследники через торрент | UTorrent

% Раздел Тема Автор DL S | L
Фильмы 2021 [DVDrip, WEB-DLRip, HDrip] (DUB, MVO) [ 1.46 GB ] Охотники за привидениями: Наследники / Ghostbusters: Afterlife [2021 HDRip] DUB [СинеЛаб СаундМикс / Кинопоиск HD] bober100 Скачать
2 | 0
Ultra HD (UHD: 2K, 4K, 8K) — видео сверхвысокой чёткости [ 50.35 GB ] Охотники за привидениями: Наследники / Ghostbusters: Afterlife [2021 UHD BDRemux 2160p ] DUB [СинеЛаб СаундМикс / Кинопоиск HD] bober100 Скачать
1 | 0
Фильмы 2021 [DVDrip, WEB-DLRip, HDrip] (DUB, MVO) [ 2.18 GB ] Охотники за привидениями: Наследники / Ghostbusters: Afterlife [2021 BDRip] - [Кинопоиск HD] Twi7ter Скачать
13 | 0
Ultra HD (UHD: 2K, 4K, 8K) — видео сверхвысокой чёткости [ 45.7 GB ] Охотники за привидениями: Наследники / Ghostbusters: Afterlife [2021 UHD BDRemux 2160p] DUB [СинеЛаб СаундМикс / Кинопоиск HD] bober100 Скачать
1 | 0
Фильмы (Blu-ray, BD-Remux, HDDVD) [ 28.12 GB ] Охотники за привидениями: Наследники / Ghostbusters: Afterlife [2021 BD Remux 1080p] DUB [СинеЛаб СаундМикс / Кинопоиск HD] bober100 Скачать
1 | 0
Фильмы [HD 720p, 1080p] (Хороший звук DUB, MVO) [ 9.53 GB ] Охотники за привидениями: Наследники / Ghostbusters: Afterlife [2021 BDRip 1080p] DUB [СинеЛаб СаундМикс / Кинопоиск HD] bober100 Скачать
2 | 0
Фильмы 2021 [DVDrip, WEB-DLRip, HDrip] (DUB, MVO) [ 2.18 GB ] Охотники за привидениями: Наследники / Ghostbusters: Afterlife [2021 HDRip] DUB [СинеЛаб СаундМикс / Кинопоиск HD] bober100 Скачать
2 | 0

28-11-2019 20:33  

Отключить вcю реклaмy на сайте

07-01-2022 09:41 Охотники за привидениями: Наследники Скачать торрент  

спасибо! фильм хорошpb.wtf



07-01-2022 19:41 Охотники за привидениями: Наследники Скачать торрент  

детское киноpb.wtf



08-01-2022 05:57 Охотники за привидениями: Наследники Скачать торрент  

перево itunes это другой перевод? Здесь не лицензия?pb.wtf



25-01-2022 18:54 Охотники за привидениями: Наследники Скачать торрент  

ну тут всё классно и сюжет и звук и спецэффектыpb.wtf



    Дорогой пользователь! Огромная просьба, поблагодарите релизера, оцените раздачу и оставьте свои комментарий, если Вы скачали Охотники за привидениями: Наследники через торрент бесплатно!
    Комментировать посты могут только пользователи прошедшие не сложную регистрацию
    Показать сообщения:    

    Охотники за привидениями: Наследники через торрент
    Скачать бесплатно Охотники за привидениями: Наследники
    Охотники за привидениями: Наследники скачать торрент
    Охотники за привидениями: Наследники смотреть онлайн
    Cкачать фильм Охотники за привидениями: Наследники бесплатно
    Охотники за привидениями: Наследники скачать торрент в хорошем качестве
    Охотники за привидениями: Наследники смотреть онлайн бесплатно в хорошем качестве


    Вы не можете начинать темы
    Вы не можете отвечать на сообщения
    Вы не можете редактировать свои сообщения
    Вы не можете удалять свои сообщения
    Вы не можете голосовать в опросах
    Вы не можете прикреплять файлы к сообщениям
    Вы можете скачивать файлы