Всегда рабочее зеркало просто перед .vidak.icu напиши любое слово или цифру, Пример http://d6s.vidak.icu

>

7.4

iTunes

7.4

2 сезон

6.6

iTunes

1

7.4

2 сезон

7.2

iTunes

6.0

MVO

13

6.1

iTunes

8.3

Пиратка

30

ULTIMATE

pack

9.9

Лицензия

ВАЖНО

ИГРА 18+

pack

7.3

RePack

MK11

7.7

RePack

jed

7.8

RePack

fifa19

8.5

RePack

RDR2

RePack

NEED FOR SPEED™ PAYBACK

1 сезон

9 сезон

Бесстыжие 9 сезон

Все сериалы

все сериалы на PB.wtf

RePack

FAR CRY 5

Anonymous, добрый день, мы катастрофически не успеваем собрать деньги на оплату серверов, помогите нам пожалуйста 5,10,15р., для нас важна любая помощь . В качестве благодарности мы отключим Вам всю рекламу на сайте (укажите свой ник в строку Ваше имя)!

×
  
Magnet ссылка

Огрики / Smelliville (Тоби Генкель, Дженс Мюллер) [2021, Мультфильм, приключения, семейный, BDRip 1080p] DUB [iTunes] pb.wtf

Огрики через торрент pb.wtf

Раздают: 7 [ 1 MB/s ]
Размер: 5.4 GB | Добавлен: 17 д. назад | Торрент скачан:86 раз
Смотреть онлайн Огрики | Скачать    Ребята, помогите собрать деньги на оплату серверов!!!

04-01-2022 17:37 Огрики Скачать торрент  

Огрики
Smelliville

Год выпуска: 2021
Страна: Германия, Бельгия
Студия: ARRI Media, Grid Animation, Leonine Studios, Verlag Friedrich Oetinger, WunderWerk, Zweites Deutsches Fernsehen (ZDF)
Жанр: Мультфильм, приключения, семейный
Продолжительность: 01:25:41
Перевод: Дублированный | iTunes
Субтитры: отсутствуют

Режиссер: Тоби Генкель, Дженс Мюллер

rating

В ролях: Бен Янг, Лили Хелд, Сьюзэн Такенберг, Тони Кларк, Джеральдин Блекер, Том Цанер, Андреа Дьюэлл, Кайя Стейн, Семадж Александр Каннингем, Трэйси Грэй

Описание: Семейство Огриков на большом зеленом драконе прилетает в тихий город Нюхвиль, но местные жители почему-то им совсем не рады. И никто кроме юного изобретателя Макса и его подруги Лотти не подозревает, что только Огрики смогут спасти город от надвигающейся опасности.

Качество: BDRip 1080p
Формат: MKV

Видео: 1920x1036 (1.85:1), 24 fps, MPEG-4 AVC ~ 8000 Kbps avg, 0.168 bit/pixel
Аудио: AC3, 48 kHz, 6 ch, ~384.00 kbps avg | русский | iTunes
Аудио: AC3, 48 kHz, 6 ch, ~640.00 kbps avg | немецкий |
скриншот  скриншот  скриншот  скриншот  скриншот  

Общее
Уникальный идентификатор : 180767424178348703463000519805221008772 (0x87FE8A1DF2E77749887DDD9CD8C8F584)
Полное имя : Smelliville.2021.1080p.BluRay.DD.5.1.x264.MegaPeer.mkv
Формат : Matroska
Версия формата : Version 4
Размер файла : 5,40 Гбайт
Продолжительность : 1 ч. 25 м.
Общий поток : 9 022 Кбит/сек
Название фильма : Огрики / Smelliville (2021) от MegaPeer
Дата кодирования : UTC 2022-01-04 16:46:48
Программа кодирования : mkvmerge v15.0.0 ('Duel with the Devil') 64-bit
Библиотека кодирования : libebml v1.3.5 + libmatroska v1.4.5
Обложка : Yes
Attachments : cover.jpg

Видео
Идентификатор : 1
Формат : AVC
Формат/Информация : Advanced Video Codec
Профиль формата : High@L4.1
Настройки формата : CABAC / 4 Ref Frames
Параметр CABAC формата : Да
Параметр RefFrames формата : 4 кадра
Идентификатор кодека : V_MPEG4/ISO/AVC
Продолжительность : 1 ч. 25 м.
Битрейт : 8 000 Кбит/сек
Ширина : 1 920 пикселей
Высота : 1 036 пикселей
Соотношение сторон : 1,85:1
Режим частоты кадров : Постоянный
Частота кадров : 24,000 кадра/сек
Цветовое пространство : YUV
Субдискретизация насыщенности : 4:2:0
Битовая глубина : 8 бит
Тип развёртки : Прогрессивная
Бит/(Пиксели*Кадры) : 0.168
Размер потока : 4,79 Гбайт (89%)
Заголовок : stillet@MegaPeer
Библиотека кодирования : x264 core 161 r3018 db0d417
Настройки программы : cabac=1 / ref=4 / deblock=1:-3:-3 / analyse=0x3:0x113 / me=umh / subme=10 / psy=1 / psy_rd=1.00:0.00 / mixed_ref=1 / me_range=48 / chroma_me=1 / trellis=2 / 8x8dct=1 / cqm=0 / deadzone=21,11 / fast_pskip=0 / chroma_qp_offset=-2 / threads=12 / lookahead_threads=3 / sliced_threads=0 / nr=0 / decimate=0 / interlaced=0 / bluray_compat=0 / constrained_intra=0 / bframes=11 / b_pyramid=2 / b_adapt=2 / b_bias=0 / direct=3 / weightb=1 / open_gop=0 / weightp=2 / keyint=240 / keyint_min=24 / scenecut=40 / intra_refresh=0 / rc_lookahead=40 / rc=2pass / mbtree=0 / bitrate=8000 / ratetol=1.0 / qcomp=0.60 / qpmin=0 / qpmax=69 / qpstep=4 / cplxblur=20.0 / qblur=0.5 / vbv_maxrate=50000 / vbv_bufsize=62500 / nal_hrd=none / filler=0 / ip_ratio=1.40 / pb_ratio=1.30 / aq=1:1.10
Язык : German
Default : Да
Forced : Нет

Аудио #1
Идентификатор : 2
Формат : AC-3
Формат/Информация : Audio Coding 3
Коммерческое название : Dolby Digital
Идентификатор кодека : A_AC3
Продолжительность : 1 ч. 25 м.
Вид битрейта : Постоянный
Битрейт : 384 Кбит/сек
Каналы : 6 каналов
Channel layout : L R C LFE Ls Rs
Частота : 48,0 КГц
Частота кадров : 31,250 кадров/сек (1536 SPF)
Метод сжатия : С потерями
Размер потока : 235 Мбайт (4%)
Заголовок : iTunes
Язык : Russian
Service kind : Complete Main
Default : Да
Forced : Нет

Аудио #2
Идентификатор : 3
Формат : AC-3
Формат/Информация : Audio Coding 3
Коммерческое название : Dolby Digital
Идентификатор кодека : A_AC3
Продолжительность : 1 ч. 25 м.
Вид битрейта : Постоянный
Битрейт : 640 Кбит/сек
Каналы : 6 каналов
Channel layout : L R C LFE Ls Rs
Частота : 48,0 КГц
Частота кадров : 31,250 кадров/сек (1536 SPF)
Метод сжатия : С потерями
Размер потока : 392 Мбайт (7%)
Язык : German
Service kind : Complete Main
Default : Нет
Forced : Нет

Меню
00:00:00.000 : en:Kapitel 01
00:09:50.000 : en:Kapitel 02
00:18:19.750 : en:Kapitel 03
00:28:46.708 : en:Kapitel 04
00:37:48.416 : en:Kapitel 05
00:47:59.500 : en:Kapitel 06
00:57:08.125 : en:Kapitel 07
01:06:25.416 : en:Kapitel 08
01:17:15.625 : en:Kapitel 09

pb.wtf



Скачать Огрики через торрент https://i116.fastpic.org/big/2022/0104/10/a5efbc79ff03e43b768f5ecccca00510.jpg Скачать, смотреть онлайн Огрики бесплантно в хорошем качестве Описание: Семейство Огриков на большом зеленом драконе прилетает в тихий город Нюхвиль, но местные жители почему-то им совсем не рады. И ... 10 10 6
Торрент: Зарегистрирован [2022-01-04 17:37] · скачан: 86 раз
Статус: √ проверено
Размер: 5.4 GB
Как cкачать? Как скачать Огрики через торрент | UTorrent

% Раздел Тема Автор DL S | L
Иностранные мультфильмы [ 746 MB ] Огрики / Smelliville [2021 Мультфильм BDRip] bober100 Скачать
1 | 0
Иностранные мультфильмы [ 1.42 GB ] Огрики / Smelliville [2021 Мультфильм BDRip] bober100 Скачать
4 | 0

28-11-2019 20:33  

Отключить всю рекламу на сайте

    Дорогой пользователь! Огромная просьба, поблагодарите релизера, оцените раздачу и оставьте свои комментарий, если Вы скачали Огрики через торрент бесплатно!
    Комментировать посты могут только пользователи прошедшие не сложную регистрацию
    Показать сообщения:    

    Огрики через торрент
    Скачать бесплатно Огрики
    Огрики скачать торрент
    Огрики смотреть онлайн
    Cкачать фильм Огрики бесплатно
    Огрики скачать торрент в хорошем качестве
    Огрики смотреть онлайн бесплатно в хорошем качестве


    Вы не можете начинать темы
    Вы не можете отвечать на сообщения
    Вы не можете редактировать свои сообщения
    Вы не можете удалять свои сообщения
    Вы не можете голосовать в опросах
    Вы не можете прикреплять файлы к сообщениям
    Вы можете скачивать файлы