Всегда рабочее зеркало без VPN и Proxy просто перед .vidak.icu напиши любое слово или цифру, Пример http://at3o.vidak.icu

MVO

2 сезон

1 сезон

1

1 сезон

iTunes

2 сезон

13

1 сезон

Распродажа

pack

Рекомендуем

Пиратка

30

ВАЖНО

RePack

MK11

RePack

jed

RePack

fifa19

RePack

RDR2

RePack

NEED FOR SPEED™ PAYBACK

Кинопоиск HD

6 сезон

 Острые козырьки 6 сезон

Все сериалы

все сериалы на PB.wtf

RePack

FAR CRY 5

Anonymous, нам критически не хватает 5601 руб. на оплату серверов и переферии за Апрель, помоги нам пожалуйста, вся надежда только на тебя. В благодарность мы отключим тебе всю рекламу на сайте!

×
  
Magnet ссылка

Сергий против нечисти / Сезон: 1 / Серии: 1-6 из 6 (Кирилл Кузин) [2022, Комедия, ужасы, фэнтези, боевик, WEBRip 1080p] pb.wtf

Сергий против нечисти через торрент pb.wtf

Размер: 4.07 GB | Добавлен: 4 мес. 10 д. назад | Торрент скачан:367 раз
Смотреть онлайн Сергий против нечисти | Скачать    Ребята, помогите собрать деньги на оплату серверов!!!

05-01-2022 01:56 Сергий против нечисти Скачать торрент  

Сергий против нечисти
Год выпуска: 2022
Страна: Россия
Студия: ООО «Паник продакшн» по заказу ООО «МТС Медиа»
Жанр: Комедия, ужасы, фэнтези, боевик
Продолжительность: ~ 00:15:00
Перевод: Не требуется
Субтитры: отсутствуют

Режиссер: Кирилл Кузин



В ролях: Роман Маякин, Лукерья Ильяшенко, Ирина Розанова, Дмитрий Куличков, Николай Шрайбер, Арсений Сергеев, Ольга Веникова, Михаил Осипов, Ирина Вилкова (II), Екатерина Фисун, Наталья Тетенова, Эрик Яралов, Евгений Потапенко, Рамиль Сабитов, Амаду Мамадаков, Алексей Сахаров (II), Сергей Стёпин, Геннадий Егоров (II), Дмитрий Первушин, Влад Волков, Сергей Фатьянов

Описание: Бывший священник Сергий, отстраненный от служения в церкви, стал охотником за нечистью. В процессе охоты он сталкивается со следователем Екатериной, которой только предстоит познакомиться с миром сверхъестественного. Сергий и Катя становятся командой и вместе начинают борьбу с фольклорными злодеями — Кощеем, Баюном и прочими.

Качество: WEBRip 1080p
Формат: MKV

Видео: MPEG-4 AVC, 1920x1080, ~ 6144 Кбит/с, 0.112 bit/pixel, 25 Кадр/с
Аудио #01: AC3, 48,0 КГц, 2 ch, 192 Кбит/с | C цензурой
Аудио #02: AC3, 48,0 КГц, 2 ch, 192 Кбит/с | Без цензуры 18+
скриншот  скриншот  скриншот  скриншот  

Общее
Уникальный идентификатор : 187180960844475095939162912639612867191 (0x8CD1BDE363FD32BF7222D171F1B7D277)
Полное имя : D:\Sergij.protiv.nechisti.S01.2021.WEB-DL.1080p\Sergij.protiv.nechisti.S01.E01.2021.WEB-DL.1080p.mkv
Формат : Matroska
Версия формата : Version 4
Размер файла : 713 Мбайт
Продолжительность : 16 м. 7 с.
Режим общего битрейта : Постоянный
Общий поток : 6 187 Кбит/сек
Название фильма : Sergij.protiv.nechisti.S01.E01.2021.WEB-DL.1080p
Дата кодирования : UTC 2022-01-04 22:28:02
Программа кодирования : mkvmerge v64.0.0 ('Willows') 64-bit
Библиотека кодирования : libebml v1.4.2 + libmatroska v1.6.4
Attachments : poster.jpg

Видео
Идентификатор : 1
Формат : AVC
Формат/Информация : Advanced Video Codec
Профиль формата : Baseline@L4
Настройки формата : 2 Ref Frames
Параметр CABAC формата : Нет
Параметр RefFrames формата : 2 кадра
Параметр GOP формата : M=1, N=25
Идентификатор кодека : V_MPEG4/ISO/AVC
Продолжительность : 16 м. 7 с.
Вид битрейта : Постоянный
Битрейт : 5 801 Кбит/сек
Номинальный битрейт : 6 144 Кбит/сек
Ширина : 1 920 пикселей
Высота : 1 080 пикселей
Соотношение сторон : 16:9
Режим частоты кадров : Постоянный
Частота кадров : 25,000 кадров/сек
Цветовое пространство : YUV
Субдискретизация насыщенности : 4:2:0
Битовая глубина : 8 бит
Тип развёртки : Прогрессивная
Бит/(Пиксели*Кадры) : 0.112
Размер потока : 669 Мбайт (94%)
Default : Да
Forced : Нет

Аудио #1
Идентификатор : 2
Формат : AC-3
Формат/Информация : Audio Coding 3
Коммерческое название : Dolby Digital
Идентификатор кодека : A_AC3
Продолжительность : 16 м. 7 с.
Вид битрейта : Постоянный
Битрейт : 192 Кбит/сек
Каналы : 2 канала
Channel layout : L R
Частота : 48,0 КГц
Частота кадров : 31,250 кадров/сек (1536 SPF)
Метод сжатия : С потерями
Размер потока : 22,1 Мбайт (3%)
Заголовок : Censor
Язык : Russian
Service kind : Complete Main
Default : Да
Forced : Да

Аудио #2
Идентификатор : 3
Формат : AC-3
Формат/Информация : Audio Coding 3
Коммерческое название : Dolby Digital
Идентификатор кодека : A_AC3
Продолжительность : 16 м. 7 с.
Вид битрейта : Постоянный
Битрейт : 192 Кбит/сек
Каналы : 2 канала
Channel layout : L R
Частота : 48,0 КГц
Частота кадров : 31,250 кадров/сек (1536 SPF)
Метод сжатия : С потерями
Размер потока : 22,1 Мбайт (3%)
Заголовок : 18+
Язык : Russian
Service kind : Complete Main
Default : Нет
Forced : Нет

Раздача ведётся путём добавления новых серий, при каждом добавлении создаётся новый торрент. Чтобы начать докачку новой серии, пользователям необходимо сделать следующее:
- Остановить скачивание.
- Удалить старый торрент у себя из клиента (старые серии удалять не надо).
- Скачать новый торрент и запустить его у себя в клиенте вместо старого, при этом указать клиенту путь в старую папку куда и должно происходить скачивание новых серий.
Ваш клиент при этом должен произвести хеширование (проверку) старой папки (если не производит сам - помогите ему сделать это), и будет докачивать только те серии которых у вас ещё нет. Старые серии при этом не удаляются, а продолжают раздаваться!
pb.wtf



Скачать Сергий против нечисти через торрент https://c.radikal.ru/c21/2201/bd/bdb7494a2553.jpg Скачать, смотреть онлайн Сергий против нечисти бесплантно в хорошем качестве Описание: Бывший священник Сергий, отстраненный от служения в церкви, стал охотником за нечистью. В процессе охоты он сталкивается со ... 9 10 19
Торрент: Зарегистрирован [2022-01-15 04:39] · скачан: 367 раз
Статус: √ проверено
Размер: 4.07 GB
Как cкачать? Как скачать Сергий против нечисти через торрент | UTorrent

% Раздел Тема Автор DL S | L
Наши сериалы [ 1.29 GB ] Сергий против нечисти / Сезон: 1 / Серии: 1-6 из 6 [2022 WEBRip-AVC] bober100 Скачать
2 | 0
Наши сериалы [ 1.46 GB ] Сергий против нечисти / Сезон: 1 / Серии: 1-6 из 6 [2022 WEBRip] bober100 Скачать
4 | 0


Последний раз редактировалось: bober100 (2022-01-15 04:39), всего редактировалось 2 раз(а)

28-11-2019 20:33  

Отключить всю рекламу на сайте

05-01-2022 07:26 Сергий против нечисти Скачать торрент  

страшна?.... pb.wtf



05-01-2022 10:47 Сергий против нечисти Скачать торрент  

Вот мода пошла клепать по-быстрому шлаковые сериальчики по 14-15 минут серия, для наполнения своих недосервисов.pb.wtf



08-01-2022 10:19 Сергий против нечисти Скачать торрент  

Halkbigus писал(а):

Вот мода пошла клепать по-быстрому шлаковые сериальчики по 14-15 минут серия, для наполнения своих недосервисов.

это ты зря....как раз норм сериальчикpb.wtf



15-01-2022 07:37 Сергий против нечисти Скачать торрент  

отстой... идея интересная - исполнение - шлак. снято и смонтировано на коленке, "актеры" не знают что такое актерская игра.., режиссура от имбицила прогулявшего школу..pb.wtf



21-01-2022 07:41 Сергий против нечисти Скачать торрент  

ally13 писал(а):

отстой... идея интересная - исполнение - шлак. снято и смонтировано на коленке, "актеры" не знают что такое актерская игра.., режиссура от имбицила прогулявшего школу..

Чтобы мы делали без мнения знатока "актерской игры" и "режиссура" со стажем на трекере в один год и один месяц ...pb.wtf



    Дорогой пользователь! Огромная просьба, поблагодарите релизера, оцените раздачу и оставьте свои комментарий, если Вы скачали Сергий против нечисти через торрент бесплатно!
    Комментировать посты могут только пользователи прошедшие не сложную регистрацию
    Показать сообщения:    

    Сергий против нечисти через торрент
    Скачать бесплатно Сергий против нечисти
    Сергий против нечисти скачать торрент
    Сергий против нечисти смотреть онлайн
    Cкачать фильм Сергий против нечисти бесплатно
    Сергий против нечисти скачать торрент в хорошем качестве
    Сергий против нечисти смотреть онлайн бесплатно в хорошем качестве


    Вы не можете начинать темы
    Вы не можете отвечать на сообщения
    Вы не можете редактировать свои сообщения
    Вы не можете удалять свои сообщения
    Вы не можете голосовать в опросах
    Вы не можете прикреплять файлы к сообщениям
    Вы можете скачивать файлы